<?xml version="1.0" standalone="no"?>
<!DOCTYPE svg PUBLIC "-//W3C//DTD SVG 1.1//EN" "http://www.w3.org/Graphics/SVG/1.1/DTD/svg11.dtd" >
<svg xmlns="http://www.w3.org/2000/svg" xmlns:xlink="http://www.w3.org/1999/xlink" version="1.1">
<metadata>
Created by FontForge 20201107 at Wed Jul  3 16:04:33 2024
 By 
Copyright (C) 2017 Hoefler &#38; Co. http://www.typography.com
</metadata>
<defs>
<font id="RingsideRegular-Light" horiz-adv-x="835" >
  <font-face 
    font-family="Ringside Regular Light"
    font-weight="300"
    font-stretch="normal"
    units-per-em="2048"
    panose-1="2 0 4 0 0 0 0 0 0 0"
    ascent="1638"
    descent="-410"
    x-height="963"
    cap-height="1364"
    bbox="-383 -670 2378 2142"
    underline-thickness="0"
    underline-position="0"
    unicode-range="U+0020-FB04"
  />
<missing-glyph horiz-adv-x="1024" 
d="M0 -410v2048h1024v-2048h-1024zM145 1536l367 -799l367 799h-734zM102 -156l353 770l-353 770v-1540zM922 1384l-353 -770l353 -770v1540zM512 492l-367 -799h734z" />
    <glyph glyph-name="f_f" unicode="ff" horiz-adv-x="1382" 
d="M590 1417h100v-110h-76q-118 0 -168.5 -48t-50.5 -143v-153h520v153q0 143 81.5 222t246.5 79h100v-110h-75q-118 0 -168.5 -48t-50.5 -143v-153h290v-109h-290v-854h-134v854h-520v-854h-133v854h-180v109h180v153q0 143 81.5 222t246.5 79z" />
    <glyph glyph-name="f_f_i" unicode="ffi" horiz-adv-x="1888" 
d="M1343 1417v-110h-75q-118 0 -168.5 -48t-50.5 -143v-153h290v-109h-290v-854h-134v854h-520v-854h-133v854h-180v109h180v153q0 143 81.5 222t246.5 79h100v-110h-76q-118 0 -168.5 -48t-50.5 -143v-153h520v153q0 143 81.5 222t246.5 79h100zM1556 1346h162v-162h-162
v162zM1569 963h135v-963h-135v963z" />
    <glyph glyph-name="f_f_l" unicode="ffl" horiz-adv-x="1888" 
d="M690 1417v-110h-76q-118 0 -168.5 -48t-50.5 -143v-153h520v153q0 143 81.5 222t246.5 79h100v-110h-75q-118 0 -168.5 -48t-50.5 -143v-153h290v-109h-290v-854h-134v854h-520v-854h-133v854h-180v109h180v153q0 143 81.5 222t246.5 79h100zM1569 1417h135v-1417h-135
v1417z" />
    <glyph glyph-name=".notdef" horiz-adv-x="1024" 
d="M0 -410v2048h1024v-2048h-1024zM145 1536l367 -799l367 799h-734zM102 -156l353 770l-353 770v-1540zM922 1384l-353 -770l353 -770v1540zM512 492l-367 -799h734z" />
    <glyph glyph-name=".null" horiz-adv-x="0" 
 />
    <glyph glyph-name="nonmarkingreturn" horiz-adv-x="682" 
 />
    <glyph glyph-name="space" unicode=" " horiz-adv-x="464" 
 />
    <glyph glyph-name="exclam" unicode="!" horiz-adv-x="544" 
d="M201 1364h141v-438l-45 -537h-49l-47 537v438zM184 201h176v-201h-176v201z" />
    <glyph glyph-name="quotedbl" unicode="&#x22;" horiz-adv-x="860" 
d="M233 1364h154l-182 -606h-90zM608 1364h154l-187 -606h-92z" />
    <glyph glyph-name="numbersign" unicode="#" horiz-adv-x="1609" 
d="M881 0l67 371h-401l-68 -371h-112l69 371h-325v104h344l75 414h-362v104h383l67 371h111l-67 -371h401l70 371h110l-67 -371h325v-104h-346l-76 -414h365v-104h-383l-68 -371h-112zM567 475h402l75 414h-401z" />
    <glyph glyph-name="dollar" unicode="$" horiz-adv-x="1323" 
d="M1169 367q0 -163 -118.5 -265t-313.5 -116v-234h-121v234q-225 14 -341.5 124.5t-116.5 280.5v53h139v-41q0 -140 97 -221.5t290 -81.5q156 0 251 67.5t95 188.5q0 61 -21 103t-72.5 73.5t-116 53t-173.5 47.5q-97 21 -166 42.5t-128.5 51.5t-95 67t-55.5 88t-20 117
q0 154 119.5 259.5t316.5 117.5v230h121v-232q109 -9 191 -44t130 -89t71.5 -118.5t23.5 -139.5v-43h-137v37q0 58 -18.5 107.5t-58 91t-110.5 65t-167 23.5q-153 0 -247.5 -72t-94.5 -182q0 -108 80.5 -160t295.5 -100q98 -23 167 -45.5t130 -54t97 -70t56.5 -92
t20.5 -121.5z" />
    <glyph glyph-name="percent" unicode="%" horiz-adv-x="1773" 
d="M436 1395q146 0 229 -90t83 -230v-43q0 -138 -84.5 -227.5t-227.5 -89.5q-144 0 -227.5 89t-83.5 228v43q0 140 82.5 230t228.5 90zM1546 1376l-1190 -1388h-129l1190 1388h129zM436 1296q-98 0 -148 -61t-50 -158v-47q0 -96 51.5 -156.5t146.5 -60.5t147 60.5t52 156.5
v47q0 96 -51 157.5t-148 61.5zM1335 -31q-143 0 -226 89t-83 229v41q0 140 82.5 230.5t228.5 90.5q147 0 229.5 -90t82.5 -231v-41q0 -139 -85 -228.5t-229 -89.5zM1337 68q95 0 146 60.5t51 156.5v47q0 96 -50.5 157.5t-148.5 61.5q-97 0 -146.5 -61.5t-49.5 -157.5v-47
q0 -96 51.5 -156.5t146.5 -60.5z" />
    <glyph glyph-name="ampersand" unicode="&#x26;" horiz-adv-x="1501" 
d="M1460 297q0 -164 -47 -246t-164 -82q-147 0 -334 178q-206 -178 -442 -178q-177 0 -281 97t-104 247q0 143 91 247t284 179q-105 177 -105 324q0 88 38.5 162t120 122t192.5 48q160 0 250 -83.5t90 -201.5q0 -125 -92 -227.5t-318 -194.5q132 -211 287 -373
q171 183 270 461h117q-106 -315 -312 -540q158 -158 250 -158q62 0 86.5 53t24.5 186v39h98v-59zM485 1059q0 -129 99 -285q186 71 261 151.5t75 178.5q0 72 -52 128t-159 56q-113 0 -168.5 -67t-55.5 -162zM219 324q0 -119 76.5 -182.5t187.5 -63.5q185 0 353 151
q-150 160 -320 420q-148 -55 -222.5 -134t-74.5 -191z" />
    <glyph glyph-name="quotesingle" unicode="'" horiz-adv-x="489" 
d="M236 1364h155l-186 -606h-90z" />
    <glyph glyph-name="parenleft" unicode="(" horiz-adv-x="808" 
d="M741 1602l64 -72q-510 -346 -510 -909q0 -562 510 -908l-64 -73q-585 370 -585 981t585 981z" />
    <glyph glyph-name="parenright" unicode=")" horiz-adv-x="808" 
d="M68 -360l-64 71q510 346 510 910q0 561 -510 907l64 74q300 -188 441.5 -438t141.5 -543q0 -612 -583 -981z" />
    <glyph glyph-name="asterisk" unicode="*" horiz-adv-x="868" 
d="M487 635q0 -35 -34 -35h-37q-35 0 -35 35q0 124 35 315q-139 -119 -256 -188q-31 -19 -47 12l-19 33q-17 33 12 47q113 66 291 129q-177 60 -291 127q-28 16 -12 47l19 33q18 30 47 12q117 -69 256 -188q-35 191 -35 315q0 35 35 35h37q34 0 34 -35q0 -130 -34 -315
q146 125 256 188q26 19 45 -12l18 -33q19 -31 -10 -47q-123 -70 -293 -127q171 -60 293 -129q28 -16 12 -47l-18 -33q-19 -32 -47 -12q-101 55 -256 188q34 -185 34 -315z" />
    <glyph glyph-name="plus" unicode="+" horiz-adv-x="1275" 
d="M580 1108h118v-369h394v-114h-394v-371h-118v371h-394v114h394v369z" />
    <glyph glyph-name="comma" unicode="," horiz-adv-x="464" 
d="M141 205h181v-146q0 -165 -61.5 -250t-199.5 -126v51q98 49 133 107.5t35 158.5h-88v205z" />
    <glyph glyph-name="hyphen" unicode="-" horiz-adv-x="864" 
d="M135 676h592v-111h-592v111z" />
    <glyph glyph-name="period" unicode="." horiz-adv-x="464" 
d="M141 205h181v-205h-181v205z" />
    <glyph glyph-name="slash" unicode="/" horiz-adv-x="929" 
d="M731 1556h121l-700 -1873h-121z" />
    <glyph glyph-name="zero" unicode="0" horiz-adv-x="1415" 
d="M709 1395q268 0 416.5 -171.5t148.5 -461.5v-160q0 -290 -148.5 -461.5t-416.5 -171.5q-270 0 -419 171.5t-149 461.5v160q0 290 149 461.5t419 171.5zM709 1278q-204 0 -316 -139t-112 -377v-160q0 -238 112 -376t316 -138t315 138t111 376v160q0 239 -111 377.5
t-315 138.5z" />
    <glyph glyph-name="one" unicode="1" horiz-adv-x="806" 
d="M55 1106v92h74q167 0 235.5 36.5t86.5 151.5h100v-1386h-141v1106h-355z" />
    <glyph glyph-name="two" unicode="2" horiz-adv-x="1277" 
d="M670 1393q238 0 363.5 -102.5t125.5 -270.5q0 -44 -7.5 -81.5t-24.5 -70t-37.5 -59.5t-54 -53t-66.5 -47.5t-82.5 -46.5t-94 -46t-108.5 -50q-13 -6 -20 -9q-119 -52 -187.5 -91.5t-114 -90.5t-61.5 -109t-16 -145h864v-121h-1010v76q0 97 15 167.5t46.5 128.5t91 108.5
t136.5 95t195 98.5q240 105 317.5 171.5t77.5 174.5q0 126 -97 190t-253 64q-169 0 -272 -78t-103 -221v-43h-135v49q0 186 138 299t374 113z" />
    <glyph glyph-name="three" unicode="3" horiz-adv-x="1288" 
d="M653 1395q120 0 216 -32.5t154.5 -86.5t89 -119.5t30.5 -136.5v-6q0 -108 -78 -199t-229 -123q158 -31 235.5 -118t77.5 -207v-7q0 -78 -31 -147t-90.5 -124t-156.5 -87.5t-220 -32.5q-119 0 -211.5 23t-149 60t-93 89t-50.5 104.5t-14 112.5v33h135v-29q0 -124 89 -199
t288 -75q173 0 268 75.5t95 201.5v4q0 118 -92.5 191t-294.5 73h-166v112h166q101 0 177 21.5t120 59t65 82.5t21 98v6q0 120 -96.5 192t-260.5 72q-187 0 -281 -80.5t-94 -194.5v-28h-135v33q0 53 15 105t53 104.5t95 91.5t148 63.5t205 24.5z" />
    <glyph glyph-name="four" unicode="4" horiz-adv-x="1314" 
d="M856 1364h160v-903h235v-117h-235v-344h-133v344h-809v109zM883 461v753l-652 -753h652z" />
    <glyph glyph-name="five" unicode="5" horiz-adv-x="1310" 
d="M729 870q228 0 343.5 -117.5t115.5 -308.5v-18q0 -94 -32 -175.5t-93.5 -145t-162 -100t-228.5 -36.5q-135 0 -236.5 32t-160 88t-87 125t-28.5 151v6h135v-2q0 -130 98 -205.5t279 -75.5q169 0 272 88t103 248v12q0 144 -82.5 231t-255.5 87q-240 0 -420 -162l-109 37
l53 735h914q-5 -53 -17.5 -77t-42.5 -34t-94 -10h-639l-41 -520q173 147 416 147z" />
    <glyph glyph-name="six" unicode="6" horiz-adv-x="1331" 
d="M672 -29q-264 0 -396.5 141t-132.5 390v297q0 134 34 242t102 188t178 123t256 43q105 0 189.5 -25.5t135.5 -64t84.5 -88t46.5 -94t13 -85.5v-24h-135v2q0 45 -19.5 89.5t-57.5 83.5t-104 63t-149 24q-224 0 -331 -121.5t-107 -368.5v-139q24 35 56 65.5t84 63.5
t130.5 52.5t173.5 19.5q118 0 211.5 -34.5t151 -93.5t87 -133t29.5 -157v-10q0 -88 -32.5 -167t-96 -143t-167 -101.5t-234.5 -37.5zM672 90q180 0 284.5 86.5t104.5 237.5v4q0 144 -97.5 231.5t-279.5 87.5q-171 0 -285 -83t-114 -220v-6q0 -157 107 -247.5t280 -90.5z" />
    <glyph glyph-name="seven" unicode="7" horiz-adv-x="1185" 
d="M520 0h-147q34 309 183.5 614.5t422.5 626.5h-899v123h1061v-100q-269 -310 -422 -614.5t-199 -649.5z" />
    <glyph glyph-name="eight" unicode="8" horiz-adv-x="1363" 
d="M682 1395q128 0 228.5 -30.5t163.5 -84t95.5 -123t32.5 -149.5v-2q0 -111 -65 -192.5t-193 -125.5q283 -92 283 -334v-2q0 -174 -144.5 -278.5t-400.5 -104.5t-399.5 104t-143.5 279v2q0 243 281 334q-128 44 -193 125.5t-65 192.5v2q0 80 32.5 149.5t95.5 123t163.5 84
t228.5 30.5zM682 1278q-181 0 -282 -73t-101 -199v-2q0 -124 102 -194.5t281 -70.5t281 70.5t102 194.5v2q0 126 -101 199t-282 73zM682 86q193 0 298 72t105 202v2q0 129 -106 202t-297 73t-297 -73t-106 -202v-2q0 -128 105.5 -201t297.5 -73z" />
    <glyph glyph-name="nine" unicode="9" horiz-adv-x="1331" 
d="M659 1395q264 0 396.5 -141.5t132.5 -389.5v-297q0 -104 -20.5 -193t-64.5 -164t-110 -127.5t-161.5 -82t-213.5 -29.5q-106 0 -191 25t-136.5 63.5t-85.5 87.5t-47 93t-13 84v18h140v-6q0 -41 18.5 -82t56 -79t103.5 -61.5t151 -23.5q226 0 332.5 123.5t106.5 364.5v120
q-23 -34 -54.5 -64.5t-84 -63.5t-131 -52.5t-173.5 -19.5q-117 0 -210.5 34t-151.5 92.5t-88.5 134t-30.5 161.5v22q0 91 33.5 171.5t97.5 144t167 100.5t232 37zM659 1276q-171 0 -280 -84t-109 -248v-8q0 -157 100.5 -241.5t276.5 -84.5q170 0 286 82t116 223v7
q0 171 -110 262.5t-280 91.5z" />
    <glyph glyph-name="colon" unicode=":" horiz-adv-x="481" 
d="M150 940h182v-205h-182v205zM150 205h182v-205h-182v205z" />
    <glyph glyph-name="semicolon" unicode=";" horiz-adv-x="481" 
d="M150 940h182v-205h-182v205zM150 205h182v-146q0 -165 -62 -250t-200 -126v51q98 49 133 107.5t35 158.5h-88v205z" />
    <glyph glyph-name="less" unicode="&#x3c;" horiz-adv-x="1193" 
d="M961 1143v-131l-664 -330l664 -330v-131l-799 402v118z" />
    <glyph glyph-name="equal" unicode="=" horiz-adv-x="1335" 
d="M217 950h901v-116h-901v116zM217 530h901v-118h-901v118z" />
    <glyph glyph-name="greater" unicode="&#x3e;" horiz-adv-x="1193" 
d="M231 221v131l666 330l-666 330v131l799 -402v-118z" />
    <glyph glyph-name="question" unicode="?" horiz-adv-x="1155" 
d="M1061 1042q0 -116 -61.5 -198.5t-231.5 -171.5q-85 -45 -123 -80t-50.5 -74.5t-12.5 -114.5h-121q0 54 3 89.5t14.5 69.5t27.5 58t47.5 52.5t70 54t99.5 61.5q84 46 129 90.5t56.5 79.5t11.5 84q0 106 -79 169t-253 63q-86 0 -151.5 -16t-106 -43.5t-66 -67t-35.5 -81.5
t-10 -93v-39h-133v57q0 59 14 113t50 108t91.5 93t145 63.5t203.5 24.5q106 0 189.5 -21t135.5 -54.5t85.5 -80.5t47 -94.5t13.5 -100.5zM432 0v201h176v-201h-176z" />
    <glyph glyph-name="at" unicode="@" horiz-adv-x="1691" 
d="M920 1366q137 0 250.5 -35t190 -93.5t129.5 -137t77 -164t24 -176.5q0 -150 -57.5 -276.5t-151 -197.5t-200.5 -71q-97 0 -153 52.5t-50 135.5q-103 -174 -252 -174q-102 0 -162.5 69t-60.5 194q0 81 28 166t75.5 156t119.5 116t152 45q71 0 120.5 -39.5t69.5 -112.5
l45 140h115l-127 -410q-38 -119 -15 -185.5t107 -66.5q112 0 206.5 132.5t94.5 328.5q0 232 -156.5 375t-418.5 143q-196 0 -354.5 -99.5t-248.5 -276t-90 -396.5q0 -282 165.5 -448t459.5 -166q144 0 279.5 47t228.5 118l49 -71q-98 -79 -248.5 -130t-308.5 -51
q-333 0 -528 190.5t-195 510.5q0 246 104.5 443t285 306t401.5 109zM893 879q-80 0 -144 -66t-95 -154t-31 -170q0 -165 137 -165q67 0 129.5 60.5t91.5 156.5l57 190q-5 63 -41.5 105.5t-103.5 42.5z" />
    <glyph glyph-name="A" unicode="A" horiz-adv-x="1429" 
d="M1192 0l-145 362h-672l-144 -362h-147l557 1378h147l555 -1378h-151zM709 1202l-287 -723h579l-288 723h-4z" />
    <glyph glyph-name="B" unicode="B" horiz-adv-x="1370" 
d="M213 1364h569q210 0 317 -88t107 -242v-37q0 -236 -248 -303v-6q271 -65 271 -311v-45q0 -154 -109.5 -243t-316.5 -89h-590v1364zM354 1247v-504h402q149 0 228 65.5t79 180.5v35q0 105 -75.5 164t-217.5 59h-416zM354 633v-516h439q145 0 217.5 60t72.5 165v41
q0 116 -81.5 183t-241.5 67h-406z" />
    <glyph glyph-name="C" unicode="C" horiz-adv-x="1409" 
d="M739 1395q105 0 193 -24.5t148.5 -66.5t103 -97.5t62.5 -117.5t20 -128v-68h-142v53q0 62 -23.5 119t-68.5 104.5t-121 76t-172 28.5q-137 0 -239.5 -64.5t-154.5 -174t-52 -247.5v-213q0 -211 120 -348t326 -137q95 0 171 28.5t121.5 76t69 104.5t23.5 119v53h142v-68
q0 -82 -33 -158t-96 -138.5t-166.5 -100t-233.5 -37.5q-181 0 -316.5 82t-204.5 222.5t-69 320.5v176q0 180 69.5 320.5t205.5 222.5t317 82z" />
    <glyph glyph-name="D" unicode="D" horiz-adv-x="1447" 
d="M213 1364h487q147 0 262.5 -45.5t189.5 -127.5t112.5 -194t38.5 -247v-140q0 -276 -157 -443t-446 -167h-487v1364zM356 1243v-1122h338q229 0 347 131t118 354v152q0 223 -119 354t-348 131h-336z" />
    <glyph glyph-name="E" unicode="E" horiz-adv-x="1271" 
d="M213 1364h944v-121h-803v-493h639v-119h-639v-510h805v-121h-946v1364z" />
    <glyph glyph-name="F" unicode="F" horiz-adv-x="1191" 
d="M213 1364h920v-121h-779v-516h613v-121h-613v-606h-141v1364z" />
    <glyph glyph-name="G" unicode="G" horiz-adv-x="1456" 
d="M745 1395q107 0 195.5 -25.5t149.5 -68.5t103 -101t61.5 -121.5t19.5 -130.5v-28h-141v20q0 63 -23 121t-68.5 107t-122.5 78.5t-176 29.5q-212 0 -331 -137.5t-119 -356.5l-2 -196q0 -228 118.5 -363t319.5 -135q190 0 301 110.5t111 280.5v82h-396v117h535v-678h-84
l-25 233q-136 -262 -462 -262q-257 0 -409.5 169.5t-152.5 455.5v172q0 180 69.5 321t206.5 223.5t322 82.5z" />
    <glyph glyph-name="H" unicode="H" horiz-adv-x="1492" 
d="M213 1364h143v-612h781v612h143v-1364h-143v629h-781v-629h-143v1364z" />
    <glyph glyph-name="I" unicode="I" horiz-adv-x="593" 
d="M225 1364h144v-1364h-144v1364z" />
    <glyph glyph-name="J" unicode="J" horiz-adv-x="1210" 
d="M870 1364h144v-868q0 -250 -117 -386.5t-350 -136.5q-226 0 -337.5 116.5t-111.5 316.5v112h138v-100q0 -324 313 -324q321 0 321 400v870z" />
    <glyph glyph-name="K" unicode="K" horiz-adv-x="1325" 
d="M1098 0q-393 508 -516 664l-226 -246v-418h-143v1364h143v-776l725 776h179l-580 -604l590 -760h-172z" />
    <glyph glyph-name="L" unicode="L" horiz-adv-x="1159" 
d="M213 1364h143v-1241h734v-123h-877v1364z" />
    <glyph glyph-name="M" unicode="M" horiz-adv-x="1857" 
d="M213 1364h207l506 -1174h6l506 1174h209v-1364h-140v1198h-4l-520 -1200h-115l-518 1200h-6v-1198h-131v1364z" />
    <glyph glyph-name="N" unicode="N" horiz-adv-x="1507" 
d="M213 1364h137l805 -1120h4v1120h135v-1364h-131l-813 1130h-4v-1130h-133v1364z" />
    <glyph glyph-name="O" unicode="O" horiz-adv-x="1495" 
d="M748 1395q279 0 439.5 -171t160.5 -462v-160q0 -291 -160.5 -462t-439.5 -171q-280 0 -440.5 171t-160.5 462v160q0 290 161.5 461.5t439.5 171.5zM748 1274q-209 0 -332 -136t-123 -362v-188q0 -226 123 -362t332 -136t332.5 136t123.5 362v188q0 226 -122.5 362
t-333.5 136z" />
    <glyph glyph-name="P" unicode="P" horiz-adv-x="1273" 
d="M213 1364h528q220 0 331.5 -99.5t111.5 -277.5v-69q0 -183 -112.5 -281t-336.5 -98h-379v-539h-143v1364zM356 1245v-588h371q165 0 239 68t74 199v57q0 264 -313 264h-371z" />
    <glyph glyph-name="Q" unicode="Q" horiz-adv-x="1501" 
d="M1430 -20q-66 -29 -130 -29q-68 0 -120 25t-107 79q-141 -86 -325 -86q-277 0 -439 173t-162 458v162q0 287 162 460t439 173t438.5 -173t161.5 -460v-164q0 -293 -177 -467q51 -41 86.5 -54.5t77.5 -13.5q38 0 95 13v-96zM291 584q0 -220 125.5 -358t331.5 -138
q131 0 239 62l-233 249l88 74l233 -250q127 136 127 359v198q0 221 -123.5 358.5t-330.5 137.5q-206 0 -331.5 -138t-125.5 -358v-196z" />
    <glyph glyph-name="R" unicode="R" horiz-adv-x="1353" 
d="M356 580v-580h-143v1364h569q218 0 325 -93t107 -263v-66q0 -137 -90 -232.5t-252 -121.5l394 -588h-164l-383 580h-363zM356 1245v-549h392q152 0 237.5 67.5t85.5 182.5v55q0 123 -74 183.5t-229 60.5h-412z" />
    <glyph glyph-name="S" unicode="S" horiz-adv-x="1304" 
d="M662 1391q131 0 230.5 -32.5t157.5 -89t86.5 -127t28.5 -153.5v-45h-145v39q0 59 -19 109t-59.5 91.5t-113 65t-171.5 23.5q-158 0 -253 -70.5t-95 -183.5q0 -39 8.5 -69t30 -54.5t48 -42.5t74.5 -36t97.5 -32.5t126.5 -33.5q133 -31 217.5 -61.5t148.5 -75.5t92 -106.5
t28 -148.5q0 -179 -138 -282t-364 -103q-269 0 -404 113.5t-135 300.5v53h146v-43q0 -142 97.5 -223.5t299.5 -81.5q160 0 256 67t96 189q0 121 -81.5 175.5t-313.5 109.5q-128 29 -209 57.5t-145 71.5t-92.5 103t-28.5 145q0 168 136.5 274.5t361.5 106.5z" />
    <glyph glyph-name="T" unicode="T" horiz-adv-x="1273" 
d="M74 1364h1126v-123h-491v-1241h-144v1241h-491v123z" />
    <glyph glyph-name="U" unicode="U" horiz-adv-x="1445" 
d="M193 1364h143v-872q0 -191 102.5 -293.5t286.5 -102.5q183 0 285 103t102 293v872h141v-872q0 -248 -140.5 -383.5t-391.5 -135.5q-250 0 -389 135.5t-139 383.5v872z" />
    <glyph glyph-name="V" unicode="V" horiz-adv-x="1419" 
d="M84 1364h158l469 -1188h4l469 1188h151l-561 -1380h-129z" />
    <glyph glyph-name="W" unicode="W" horiz-adv-x="2082" 
d="M106 1364h150l344 -1176h4l371 1180h133l377 -1180h4l342 1176h145l-426 -1380h-137l-373 1165h-4l-372 -1165h-140z" />
    <glyph glyph-name="X" unicode="X" horiz-adv-x="1374" 
d="M1118 0l-438 596l-428 -596h-166l512 692l-498 672h170l422 -576l414 576h166l-496 -672l512 -692h-170z" />
    <glyph glyph-name="Y" unicode="Y" horiz-adv-x="1327" 
d="M66 1364h163l441 -700l432 700h158l-523 -829v-535h-145v537z" />
    <glyph glyph-name="Z" unicode="Z" horiz-adv-x="1273" 
d="M139 1364h1035v-82l-877 -1159h862v-123h-1057v82l881 1161h-844v121z" />
    <glyph glyph-name="bracketleft" unicode="[" horiz-adv-x="790" 
d="M219 1556h563v-102h-434v-1669h434v-102h-563v1873z" />
    <glyph glyph-name="backslash" unicode="\" horiz-adv-x="929" 
d="M78 1556h121l702 -1873h-123z" />
    <glyph glyph-name="bracketright" unicode="]" horiz-adv-x="790" 
d="M569 -317h-563v104h436v1667h-436v102h563v-1873z" />
    <glyph glyph-name="asciicircum" unicode="^" horiz-adv-x="1310" 
d="M1135 618h-138l-342 611l-342 -611h-137l420 746h119z" />
    <glyph glyph-name="underscore" unicode="_" horiz-adv-x="944" 
d="M-4 -215h952v-102h-952v102z" />
    <glyph glyph-name="grave" unicode="`" horiz-adv-x="1021" 
d="M297 1554h174l256 -393h-94z" />
    <glyph glyph-name="grave" unicode="&#x300;" horiz-adv-x="1021" 
d="M297 1554h174l256 -393h-94z" />
    <glyph glyph-name="a" unicode="a" horiz-adv-x="1091" 
d="M780 182q-136 -202 -379 -202q-134 0 -207 67.5t-73 188.5q0 84 38 143.5t122 101.5q144 72 499 97v65q0 231 -243 231q-119 0 -188.5 -53.5t-69.5 -146.5v-15h-125v19q0 136 100.5 223.5t284.5 87.5q185 0 277.5 -88.5t92.5 -255.5v-405q0 -95 25.5 -122.5t103.5 -27.5
v-96h-51q-97 0 -148 40t-59 148zM254 242q0 -156 180 -156q83 0 164 41.5t131.5 105.5t50.5 127v125q-306 -21 -415 -77q-62 -29 -86.5 -69t-24.5 -97z" />
    <glyph glyph-name="b" unicode="b" horiz-adv-x="1175" 
d="M178 1417h135v-649q28 47 58.5 83t73 68.5t99 50t124.5 17.5q121 0 212.5 -61.5t137 -163t45.5 -225.5v-109q0 -191 -109.5 -321t-289.5 -130q-69 0 -127 18t-100.5 51.5t-72.5 68.5t-59 82l-16 -197h-111v1417zM637 874q-130 0 -227 -104t-97 -258v-61q0 -154 97 -258.5
t227 -104.5q136 0 213.5 99.5t77.5 248.5v90q0 149 -77.5 248.5t-213.5 99.5z" />
    <glyph glyph-name="c" unicode="c" horiz-adv-x="1042" 
d="M553 86q69 0 122.5 21t83.5 55.5t45 73.5t15 81v5h127v-13q0 -64 -25.5 -124t-73.5 -108t-124.5 -77t-169.5 -29q-214 0 -328 126.5t-114 346.5v70q0 217 116.5 347t327.5 130q95 0 171 -28.5t123 -76.5t72 -107.5t25 -125.5v-12h-127v4q0 42 -14.5 81.5t-43.5 74
t-82 55.5t-122 21q-154 0 -233.5 -96t-79.5 -261v-82q0 -164 78.5 -258t230.5 -94z" />
    <glyph glyph-name="d" unicode="d" horiz-adv-x="1175" 
d="M862 1417h135v-1417h-110l-13 213q-62 -111 -147 -173.5t-219 -62.5q-182 0 -288.5 129t-106.5 324v102q0 195 109 324t290 129q67 0 123.5 -17t98.5 -48.5t71 -64.5t57 -77v639zM539 874q-135 0 -213 -100t-78 -248v-90q0 -149 77.5 -248.5t213.5 -99.5q131 0 228 104
t97 259v61q0 154 -97.5 258t-227.5 104z" />
    <glyph glyph-name="e" unicode="e" horiz-adv-x="1069" 
d="M958 289q0 -141 -108.5 -229.5t-288.5 -88.5q-114 0 -201.5 35t-141 98.5t-80.5 146.5t-27 183v80q0 206 116.5 341.5t317.5 135.5q105 0 185.5 -36t130.5 -100.5t75 -148.5t25 -184v-69h-719v-29q0 -73 17.5 -132.5t54 -106.5t100 -73t149.5 -26q125 0 199 58t74 149v6
h122v-10zM543 879q-137 0 -216 -92t-85 -240h589q-3 151 -74 241.5t-214 90.5z" />
    <glyph glyph-name="f" unicode="f" horiz-adv-x="729" 
d="M690 1417v-110h-76q-118 0 -168.5 -48t-50.5 -143v-153h291v-109h-291v-854h-133v854h-180v109h180v153q0 143 81.5 222t246.5 79h100z" />
    <glyph glyph-name="g" unicode="g" horiz-adv-x="1077" 
d="M1028 -88q0 -115 -125.5 -180.5t-355.5 -65.5q-234 0 -354.5 57t-120.5 164q0 141 233 187v4q-82 22 -126 55.5t-44 85.5q0 89 164 143q-73 44 -112.5 112.5t-39.5 148.5v45q0 136 109 225.5t283 89.5q77 0 145 -22q76 6 123 19t70 36t30 48.5t6 65.5h107q10 -42 10 -63
q0 -76 -56.5 -114t-174.5 -50q131 -88 131 -239v-43q0 -134 -106.5 -225t-286.5 -91q-78 0 -152 23q-129 -32 -129 -88q0 -44 93 -68.5t206 -24.5h14q459 0 459 -235zM537 410q123 0 192.5 59t69.5 152v49q0 92 -69.5 150.5t-192.5 58.5q-121 0 -191 -58.5t-70 -150.5v-49
q0 -93 69.5 -152t191.5 -59zM549 -238q174 0 264 37.5t90 104.5t-86.5 99t-271.5 32h-27q-159 0 -241 -38t-82 -99q0 -63 88.5 -99.5t265.5 -36.5z" />
    <glyph glyph-name="h" unicode="h" horiz-adv-x="1163" 
d="M178 1417h135v-649q141 217 367 217q146 0 230.5 -89t84.5 -239v-657h-135v643q0 102 -58 163.5t-161 61.5q-133 0 -230.5 -95t-97.5 -206v-567h-135v1417z" />
    <glyph glyph-name="i" unicode="i" horiz-adv-x="503" 
d="M172 1346h162v-162h-162v162zM184 963h135v-963h-135v963z" />
    <glyph glyph-name="j" unicode="j" horiz-adv-x="512" 
d="M180 1346h162v-162h-162v162zM193 963h135v-965q0 -163 -77.5 -239t-244.5 -76h-35v108h15q119 0 163 51t44 156v965z" />
    <glyph glyph-name="k" unicode="k" horiz-adv-x="1036" 
d="M178 1417h135v-1034l484 580h155l-334 -392l361 -571h-152l-299 473l-215 -250v-223h-135v1417z" />
    <glyph glyph-name="l" unicode="l" horiz-adv-x="503" 
d="M184 1417h135v-1417h-135v1417z" />
    <glyph glyph-name="m" unicode="m" horiz-adv-x="1804" 
d="M313 571v-571h-135v963h111l14 -209q72 114 158.5 172.5t208.5 58.5q114 0 189 -57t102 -158q70 105 157.5 160t206.5 55q146 0 228.5 -87.5t82.5 -238.5v-659h-135v643q0 102 -54.5 163.5t-154.5 61.5q-86 0 -160.5 -46t-115.5 -114t-41 -137v-571h-135v643
q0 102 -54 163.5t-153 61.5q-131 0 -225.5 -94.5t-94.5 -202.5z" />
    <glyph glyph-name="n" unicode="n" horiz-adv-x="1163" 
d="M178 963h111l14 -209q73 113 163.5 172t213.5 59q146 0 230.5 -89t84.5 -239v-657h-135v643q0 102 -58 163.5t-161 61.5q-133 0 -230.5 -95t-97.5 -206v-567h-135v963z" />
    <glyph glyph-name="o" unicode="o" horiz-adv-x="1112" 
d="M557 991q205 0 326 -130.5t121 -334.5v-92q0 -201 -124.5 -332t-324.5 -131q-202 0 -324 130t-122 331v92q0 204 120.5 335.5t327.5 131.5zM555 879q-145 0 -228 -97t-83 -247v-111q0 -148 86 -244t225 -96q140 0 226.5 96t86.5 244v111q0 149 -84.5 246.5t-228.5 97.5z
" />
    <glyph glyph-name="p" unicode="p" horiz-adv-x="1175" 
d="M178 963h113l12 -211q62 110 147 172.5t218 62.5q122 0 212.5 -61.5t136.5 -164t46 -229.5v-102q0 -195 -109 -324t-290 -129q-67 0 -123.5 17t-98.5 48.5t-71.5 64.5t-57.5 77v-501h-135v1280zM637 874q-130 0 -227 -104t-97 -258v-61q0 -154 97 -258.5t227 -104.5
q136 0 213.5 99.5t77.5 248.5v90q0 149 -77.5 248.5t-213.5 99.5z" />
    <glyph glyph-name="q" unicode="q" horiz-adv-x="1175" 
d="M512 985q69 0 126.5 -17.5t100.5 -51t72.5 -68.5t58.5 -82l17 197h110v-1280h-135v512q-60 -100 -142.5 -159t-211.5 -59q-181 0 -288 129.5t-107 319.5v111q0 124 47.5 225t139.5 162t212 61zM539 874q-136 0 -213.5 -99.5t-77.5 -248.5v-90q0 -149 77.5 -248.5
t213.5 -99.5q131 0 227 104t96 259v61q0 154 -96.5 258t-226.5 104z" />
    <glyph glyph-name="r" unicode="r" horiz-adv-x="774" 
d="M178 963h111l14 -252q49 117 135.5 191.5t216.5 74.5q31 0 74 -6v-131q-41 6 -78 6q-136 0 -237 -99t-101 -225v-522h-135v963z" />
    <glyph glyph-name="s" unicode="s" horiz-adv-x="1024" 
d="M524 -27q-204 0 -307.5 91t-103.5 233v31h123v-25q0 -100 74 -160.5t216 -60.5q118 0 186 46t68 130q0 74 -59 112.5t-223 65.5q-192 32 -277.5 94t-85.5 181q0 117 102.5 197.5t272.5 80.5q185 0 282 -85t97 -218v-22h-121v16q0 93 -67.5 148t-194.5 55q-106 0 -175 -47
t-69 -119t63 -110t222 -66q195 -31 277.5 -92.5t82.5 -184.5q0 -129 -103.5 -210t-279.5 -81z" />
    <glyph glyph-name="t" unicode="t" horiz-adv-x="782" 
d="M76 963h176v217l135 39v-256h324v-109h-324v-537q0 -120 44.5 -164t158.5 -44h69v-111h-92q-163 0 -239 67.5t-76 227.5v561h-176v109z" />
    <glyph glyph-name="u" unicode="u" horiz-adv-x="1163" 
d="M168 963h135v-641q0 -103 58 -165.5t161 -62.5q89 0 166 46.5t119.5 115.5t42.5 139v568h137v-963h-113l-14 211q-72 -114 -162 -174t-213 -60q-147 0 -232 89.5t-85 240.5v656z" />
    <glyph glyph-name="v" unicode="v" horiz-adv-x="1042" 
d="M57 963h144l321 -816h4l320 816h141l-399 -971h-131z" />
    <glyph glyph-name="w" unicode="w" horiz-adv-x="1581" 
d="M68 963h139l254 -805h4l260 805h133l264 -805h4l254 805h136l-330 -971h-121l-274 805h-5l-270 -805h-121z" />
    <glyph glyph-name="x" unicode="x" horiz-adv-x="1011" 
d="M797 0l-297 403l-295 -403h-150l373 487l-365 476h160l287 -392l285 392h151l-362 -478l370 -485h-157z" />
    <glyph glyph-name="y" unicode="y" horiz-adv-x="1046" 
d="M68 963h143l326 -822l315 822h141l-391 -965q-75 -177 -154.5 -247t-222.5 -70h-63v114h43q97 0 148 36t87 118l21 49z" />
    <glyph glyph-name="z" unicode="z" horiz-adv-x="1005" 
d="M129 963h782v-78l-628 -772h616v-113h-795v78l629 776h-604v109z" />
    <glyph glyph-name="braceleft" unicode="{" horiz-adv-x="870" 
d="M721 1556h108v-98h-67q-192 0 -273 -49.5t-81 -153.5q0 -53 24 -111.5t53.5 -102.5t53.5 -99.5t24 -103.5q0 -78 -58 -133t-192 -84q134 -29 192 -84.5t58 -133.5q0 -40 -16 -83t-38.5 -82t-45.5 -78.5t-39 -85.5t-16 -90q0 -103 81.5 -152t272.5 -49h67v-100h-108
q-105 0 -186 17.5t-130.5 45t-81 67t-43.5 78.5t-12 84q0 63 27 131.5t60 117t60 104.5t27 98q0 64 -81.5 102.5t-206.5 38.5h-41v107h41q125 0 206.5 38.5t81.5 102.5q0 35 -18 77t-43.5 83.5t-51 86t-43.5 98t-18 104.5q0 45 12 84t43.5 78.5t81 67t130.5 45t186 17.5z
" />
    <glyph glyph-name="bar" unicode="|" horiz-adv-x="761" 
d="M322 1556h118v-1873h-118v1873z" />
    <glyph glyph-name="braceright" unicode="}" horiz-adv-x="870" 
d="M41 1556h109q105 0 185.5 -17.5t129.5 -45t80.5 -67t43 -78.5t11.5 -84q0 -51 -18 -104.5t-43.5 -98t-51 -86t-43.5 -83.5t-18 -77q0 -65 82.5 -103t208.5 -38h41v-107h-41q-126 0 -208.5 -38t-82.5 -103q0 -42 27 -98t60 -104.5t60 -117t27 -131.5q0 -45 -11.5 -84
t-43 -78.5t-80.5 -67t-129.5 -45t-185.5 -17.5h-109v100h68q191 0 272.5 49t81.5 152q0 53 -24.5 112.5t-53.5 103t-53.5 99.5t-24.5 104q0 78 58 133.5t192 84.5q-134 29 -192 84t-58 133q0 48 24.5 103.5t53.5 99.5t53.5 102.5t24.5 111.5q0 104 -81 153.5t-273 49.5h-68
v98z" />
    <glyph glyph-name="asciitilde" unicode="~" horiz-adv-x="1425" 
d="M444 928q45 0 87 -15.5t83 -48.5t67 -59t67 -72q39 -45 59.5 -67t53 -51t62 -41.5t60.5 -12.5q53 0 85 41t32 123q0 92 -39 201h110q43 -93 43 -211q0 -123 -58.5 -201t-174.5 -78q-45 0 -86.5 15t-82 48t-66 58.5t-66.5 71.5q-5 6 -23.5 26t-24 26.5t-22 23.5t-24 23.5
t-22.5 20t-24 19t-23 14t-24.5 12t-24 6.5t-26.5 3q-52 0 -84 -41t-32 -123q0 -101 41 -201h-113q-43 93 -43 213q0 121 59 199t174 78z" />
    <glyph glyph-name="asciitilde" unicode="&#x223c;" horiz-adv-x="1425" 
d="M444 928q45 0 87 -15.5t83 -48.5t67 -59t67 -72q39 -45 59.5 -67t53 -51t62 -41.5t60.5 -12.5q53 0 85 41t32 123q0 92 -39 201h110q43 -93 43 -211q0 -123 -58.5 -201t-174.5 -78q-45 0 -86.5 15t-82 48t-66 58.5t-66.5 71.5q-5 6 -23.5 26t-24 26.5t-22 23.5t-24 23.5
t-22.5 20t-24 19t-23 14t-24.5 12t-24 6.5t-26.5 3q-52 0 -84 -41t-32 -123q0 -101 41 -201h-113q-43 93 -43 213q0 121 59 199t174 78z" />
    <glyph glyph-name="uni00A0" unicode="&#xa0;" horiz-adv-x="464" 
 />
    <glyph glyph-name="exclamdown" unicode="&#xa1;" horiz-adv-x="544" 
d="M360 1163h-176v201h176v-201zM342 0h-141v438l47 537h49l45 -537v-438z" />
    <glyph glyph-name="cent" unicode="&#xa2;" horiz-adv-x="1091" 
d="M973 518q0 -80 -37.5 -150.5t-117 -121.5t-187.5 -62v-202h-121v202q-186 20 -284.5 144.5t-98.5 320.5v66q0 194 99.5 319.5t283.5 145.5v202h121v-200q110 -11 189.5 -61.5t116 -121.5t36.5 -153v-12h-131v4q0 40 -14.5 78t-44 72.5t-82.5 55.5t-123 21
q-154 0 -234 -94t-80 -250v-78q0 -155 79.5 -249.5t231.5 -94.5q68 0 121.5 21t84 55t46 73t15.5 78v4h131v-12z" />
    <glyph glyph-name="sterling" unicode="&#xa3;" horiz-adv-x="1525" 
d="M1399 330q0 -187 -79 -274t-237 -87q-69 0 -134.5 14.5t-129 45.5t-104 55t-103.5 66q-53 -83 -132 -132t-175 -49q-109 0 -169 56.5t-60 144.5q0 89 62.5 149t172.5 60q107 0 248 -76q16 59 16 107q0 101 -67 221h-309v100h252q-78 145 -78 270q0 171 128.5 282.5
t366.5 111.5q237 0 362.5 -103.5t125.5 -294.5v-41h-133v31q0 143 -94 215t-263 72q-72 0 -133.5 -16t-111 -48.5t-77.5 -87.5t-28 -127q0 -50 13.5 -100t28 -81t42.5 -83h479v-100h-428q45 -98 45 -211q0 -90 -34 -174q59 -35 79 -47t73.5 -40t85.5 -39t78.5 -21.5
t88.5 -10.5q45 0 78 9.5t63.5 34t47 76t16.5 128.5v84h127v-90zM182 172q0 -44 33.5 -76.5t91.5 -32.5q68 0 124.5 37.5t92.5 104.5q-127 76 -215 76q-62 0 -94.5 -31t-32.5 -78z" />
    <glyph glyph-name="yen" unicode="&#xa5;" horiz-adv-x="1351" 
d="M1171 260h-426v-260h-133v260h-434v96h434v197l-8 10h-426v96h365l-449 705h158l432 -690l422 690h154l-445 -705h356v-96h-417l-9 -10v-197h426v-96z" />
    <glyph glyph-name="section" unicode="&#xa7;" horiz-adv-x="1351" 
d="M1159 -41q0 -135 -123.5 -221t-357.5 -86q-255 0 -384.5 99t-129.5 257v31h129v-25q0 -110 97 -177.5t294 -67.5q162 0 250 50t88 136q0 78 -79.5 123.5t-307.5 105.5q-104 29 -169.5 51t-129.5 51.5t-99 61.5t-56 76t-21 100q0 103 82 175.5t237 109.5
q-141 51 -204.5 114.5t-63.5 163.5q0 133 121.5 220.5t341.5 87.5q241 0 368 -99.5t127 -255.5v-16h-131v10q0 108 -93.5 176t-276.5 68q-150 0 -236 -50.5t-86 -135.5q0 -78 77 -125.5t296 -104.5q104 -29 170 -51t130 -51.5t98.5 -61.5t55.5 -76t21 -100q0 -205 -320 -284
q150 -51 217.5 -114.5t67.5 -164.5zM702 289q21 -7 39 -10q151 22 237.5 80.5t86.5 146.5q0 85 -88.5 136.5t-325.5 115.5q-21 6 -39 12q-150 -24 -236.5 -82.5t-86.5 -146.5q0 -85 88.5 -136.5t324.5 -115.5z" />
    <glyph glyph-name="dieresis" unicode="&#xa8;" horiz-adv-x="1024" 
d="M262 1350h154v-166h-154v166zM608 1350h154v-166h-154v166z" />
    <glyph glyph-name="dieresis" unicode="&#x308;" horiz-adv-x="1024" 
d="M262 1350h154v-166h-154v166zM608 1350h154v-166h-154v166z" />
    <glyph glyph-name="copyright" unicode="&#xa9;" horiz-adv-x="1822" 
d="M154 682q0 157 57 294.5t156 236t240.5 155.5t303.5 57q163 0 304.5 -57t241 -155.5t156 -236t56.5 -294.5t-56.5 -294.5t-156 -236t-241 -155.5t-304.5 -57q-162 0 -303.5 57t-240.5 155.5t-156 236t-57 294.5zM1575 682q0 188 -83 338.5t-235 236.5t-346 86t-346 -86
t-234.5 -236.5t-82.5 -338.5q0 -140 48.5 -262.5t134.5 -211t210.5 -139.5t269.5 -51q194 0 346 87t235 238.5t83 338.5zM922 1047q138 0 209 -65.5t71 -168.5v-25h-110v17q0 61 -43.5 102t-128.5 41q-95 0 -147 -59t-52 -154v-104q0 -94 52.5 -154.5t146.5 -60.5
q85 0 128.5 41t43.5 104v19h110v-27q0 -103 -72 -169.5t-210 -66.5q-147 0 -229.5 87t-82.5 231v96q0 142 83 229t231 87z" />
    <glyph glyph-name="ordfeminine" unicode="&#xaa;" horiz-adv-x="976" 
d="M684 752q-50 -78 -133 -123t-195 -45q-120 0 -181.5 52.5t-61.5 147.5q0 127 129 193q112 56 438 88v33q0 88 -48 129t-157 41q-99 0 -155 -45t-56 -121v-8h-112v18q0 114 85 187t242 73q320 0 320 -276v-310q0 -66 23.5 -87t95.5 -21v-84h-58q-84 0 -126.5 34t-49.5 124
zM233 795q0 -53 36.5 -84t111.5 -31q124 0 211.5 67t87.5 158v76q-280 -25 -375 -78q-72 -37 -72 -108z" />
    <glyph glyph-name="guillemotleft" unicode="&#xab;" horiz-adv-x="1314" 
d="M561 954h88q-40 -150 -126 -262t-236 -211q149 -97 235.5 -209.5t126.5 -261.5h-88q-108 278 -444 422v98q335 144 444 424zM1090 954h90q-41 -150 -128 -262t-237 -211q149 -97 236.5 -209.5t128.5 -261.5h-90q-108 277 -445 422v98q336 144 445 424z" />
    <glyph glyph-name="registered" unicode="&#xae;" horiz-adv-x="1110" 
d="M555 1395q193 0 318.5 -125t125.5 -309q0 -183 -125.5 -307t-318.5 -124t-318.5 124t-125.5 307q0 184 125.5 309t318.5 125zM555 1327q-168 0 -269.5 -102.5t-101.5 -263.5q0 -160 101.5 -263.5t269.5 -103.5t268.5 103.5t100.5 263.5q0 161 -100 263.5t-269 102.5z
M471 911v-155h-82v422h203q153 0 153 -131q0 -98 -92 -127l105 -164h-92l-97 155h-98zM471 1110v-135h104q89 0 89 69q0 66 -84 66h-109z" />
    <glyph glyph-name="macron" unicode="&#xaf;" horiz-adv-x="1024" 
d="M190 1317h644v-103h-644v103z" />
    <glyph glyph-name="macron" unicode="&#x304;" horiz-adv-x="1024" 
d="M190 1317h644v-103h-644v103z" />
    <glyph glyph-name="degree" unicode="&#xb0;" horiz-adv-x="956" 
d="M479 1395q163 0 261 -99.5t98 -248.5t-100.5 -249t-260.5 -100t-260 99.5t-100 249.5q0 149 98.5 248.5t263.5 99.5zM477 1292q-111 0 -175 -69t-64 -176q0 -109 66 -177.5t173 -68.5q108 0 175 68.5t67 177.5q0 107 -65.5 176t-176.5 69z" />
    <glyph glyph-name="plusminus" unicode="&#xb1;" horiz-adv-x="1327" 
d="M606 1264h115v-363h385v-113h-385v-364h-115v364h-389v113h389v363zM217 231h891v-116h-891v116z" />
    <glyph glyph-name="two.sup" unicode="&#xb2;" 
d="M731 608h-637v45q0 75 13 125.5t49.5 93t91 75.5t147.5 73q142 59 187 94t45 92q0 67 -57 102t-142 35q-97 0 -158 -44t-61 -121v-25h-107v29q0 114 89 184t241 70q147 0 227 -62.5t80 -163.5q0 -41 -13.5 -73.5t-33 -55.5t-63.5 -49.5t-81 -44t-110 -49.5
q-137 -57 -181 -101.5t-44 -131.5h518v-97z" />
    <glyph glyph-name="three.sup" unicode="&#xb3;" 
d="M422 1436q147 0 230 -66t83 -160v-4q0 -63 -47.5 -115.5t-138.5 -70.5q95 -18 142.5 -70.5t47.5 -122.5v-4q0 -97 -84 -164t-235 -67q-174 0 -253 68.5t-79 168.5v23h105v-16q0 -67 54.5 -110.5t166.5 -43.5q95 0 154 40t59 105v2q0 65 -56 104.5t-174 39.5h-102v86h102
q116 0 172 41t56 100v6q0 61 -58 99t-151 38q-108 0 -164.5 -44t-56.5 -107v-16h-105v22q0 42 18 82t55 76t104 58t155 22z" />
    <glyph glyph-name="acute" unicode="&#xb4;" horiz-adv-x="1021" 
d="M727 1554l-336 -393h-96l256 393h176z" />
    <glyph glyph-name="acute" unicode="&#x301;" horiz-adv-x="1021" 
d="M727 1554l-336 -393h-96l256 393h176z" />
    <glyph glyph-name="paragraph" unicode="&#xb6;" horiz-adv-x="1529" 
d="M1325 1364v-1681h-121v1562h-241v-1562h-121v686h-119q-152 1 -274 40.5t-198 108t-116.5 156.5t-40.5 188v4q0 102 41 191t117.5 158t198 109t272.5 40h602zM842 1245h-99q-196 0 -281 -100t-85 -285v-4q0 -181 85 -277t281 -96h99v762z" />
    <glyph glyph-name="periodcentered" unicode="&#xb7;" horiz-adv-x="464" 
d="M141 784h181v-204h-181v204z" />
    <glyph glyph-name="cedilla" unicode="&#xb8;" horiz-adv-x="1024" 
d="M774 -342q0 -94 -68 -145.5t-190 -51.5q-129 0 -258 54l31 69q109 -45 215 -45q162 0 162 119q0 49 -34.5 77.5t-101.5 28.5q-57 0 -129 -28l-36 55l178 236h90l-164 -205q56 18 102 18q92 0 147.5 -49.5t55.5 -132.5z" />
    <glyph glyph-name="cedilla" unicode="&#x327;" horiz-adv-x="1024" 
d="M774 -342q0 -94 -68 -145.5t-190 -51.5q-129 0 -258 54l31 69q109 -45 215 -45q162 0 162 119q0 49 -34.5 77.5t-101.5 28.5q-57 0 -129 -28l-36 55l178 236h90l-164 -205q56 18 102 18q92 0 147.5 -49.5t55.5 -132.5z" />
    <glyph glyph-name="one.sup" unicode="&#xb9;" horiz-adv-x="618" 
d="M330 1430h80v-822h-115v619h-209v82h53q95 0 137 25.5t54 95.5z" />
    <glyph glyph-name="ordmasculine" unicode="&#xba;" horiz-adv-x="966" 
d="M483 1374q173 0 272 -101.5t99 -264.5v-68q0 -163 -101 -265t-270 -102t-269.5 101.5t-100.5 263.5v68q0 163 99.5 265.5t270.5 102.5zM483 1268q-116 0 -180.5 -70.5t-64.5 -183.5v-82q0 -114 66.5 -182t178.5 -68t179 68t67 182v82q0 113 -65.5 183.5t-180.5 70.5z" />
    <glyph glyph-name="guillemotright" unicode="&#xbb;" horiz-adv-x="1308" 
d="M748 10h-89q40 149 126.5 261.5t236.5 209.5q-150 99 -237 211t-126 262h89q107 -280 444 -424v-98q-336 -144 -444 -422zM225 10h-90q41 149 128.5 261.5t236.5 209.5q-150 99 -237 211t-128 262h90q107 -279 445 -424v-98q-337 -145 -445 -422z" />
    <glyph glyph-name="onequarter" unicode="&#xbc;" horiz-adv-x="1683" 
d="M330 1376h80v-821h-115v619h-209v81h53q95 0 137 25.5t54 95.5zM1341 1364l-997 -1364h-111l998 1364h110zM1356 809h135v-530h137v-91h-137v-188h-107v188h-503v95zM1384 279v438l-393 -438h393z" />
    <glyph glyph-name="onehalf" unicode="&#xbd;" horiz-adv-x="1804" 
d="M330 1376h80v-821h-115v619h-209v81h53q95 0 137 25.5t54 95.5zM1341 1364l-997 -1364h-111l998 1364h110zM1700 0h-637v45q0 99 28 161t89.5 107.5t183.5 98.5q141 58 186 93.5t45 92.5q0 67 -55.5 101t-140.5 34q-98 0 -158.5 -43t-60.5 -121v-24h-107v28q0 114 88 184
t240 70q149 0 228 -62t79 -163q0 -41 -13.5 -73.5t-33 -55.5t-63.5 -49.5t-81 -44t-110 -49.5q-135 -57 -179.5 -101.5t-45.5 -132.5h518v-96z" />
    <glyph glyph-name="threequarters" unicode="&#xbe;" horiz-adv-x="1910" 
d="M422 1382q147 0 230 -66t83 -159v-4q0 -63 -47.5 -115.5t-138.5 -70.5q95 -18 142.5 -70.5t47.5 -122.5v-4q0 -97 -84 -164t-235 -67q-174 0 -253 68.5t-79 168.5v23h105v-17q0 -67 54.5 -110t166.5 -43q95 0 154 40t59 105v2q0 65 -56 104.5t-174 39.5h-102v86h102
q116 0 172 41t56 100v6q0 61 -58 99t-151 38q-108 0 -164.5 -44t-56.5 -107v-17h-105v23q0 42 18 82t55 76t104 57.5t155 21.5zM1569 1364l-998 -1364h-108l997 1364h109zM1583 809h137v-530h135v-91h-135v-188h-106v188h-504v95zM1614 279v438l-395 -438h395z" />
    <glyph glyph-name="questiondown" unicode="&#xbf;" horiz-adv-x="1155" 
d="M723 1364v-201h-176v201h176zM94 322q0 116 61.5 198.5t231.5 171.5q85 45 123 80t50.5 74.5t12.5 114.5h121q0 -106 -19 -163t-71 -104.5t-172 -118.5q-64 -35 -104.5 -67t-60 -64t-25.5 -58.5t-6 -63.5q0 -106 78.5 -169t252.5 -63q86 0 151.5 16t106 43.5t66 67
t35.5 81.5t10 93v39h131v-57q0 -59 -14 -113t-49.5 -108t-90.5 -93t-144.5 -63.5t-203.5 -24.5q-106 0 -189.5 21t-135.5 54.5t-85.5 80.5t-47 94.5t-13.5 100.5z" />
    <glyph glyph-name="Agrave" unicode="&#xc0;" horiz-adv-x="1429" 
d="M340 1931h174l250 -342h-100zM1192 0l-145 362h-672l-144 -362h-147l557 1378h147l555 -1378h-151zM709 1202l-287 -723h579l-288 723h-4z" />
    <glyph glyph-name="Aacute" unicode="&#xc1;" horiz-adv-x="1429" 
d="M1090 1931l-326 -342h-100l249 342h177zM1192 0l-145 362h-672l-144 -362h-147l557 1378h147l555 -1378h-151zM709 1202l-287 -723h579l-288 723h-4z" />
    <glyph glyph-name="Acircumflex" unicode="&#xc2;" horiz-adv-x="1429" 
d="M641 1927h147q62 -212 269 -278v-74q-121 23 -209 89.5t-133 150.5q-47 -85 -134.5 -151t-207.5 -89v74q203 65 268 278zM1192 0l-145 362h-672l-144 -362h-147l557 1378h147l555 -1378h-151zM709 1202l-287 -723h579l-288 723h-4z" />
    <glyph glyph-name="Atilde" unicode="&#xc3;" horiz-adv-x="1429" 
d="M530 1901q47 0 89 -19.5t66.5 -41t57.5 -58.5q2 -2 16 -17t16.5 -18t15 -16t17.5 -16t16 -12.5t18 -12t17 -7.5t20 -6.5t20 -1.5q40 0 62 27t22 78q0 45 -20 110h79q25 -65 25 -127q0 -87 -46 -137.5t-124 -50.5q-46 0 -88 19.5t-65.5 40.5t-57.5 57q-4 5 -18 20
t-19 20.5t-17.5 17.5t-19 17t-18.5 13t-21 11t-21 6t-24 3q-82 0 -82 -104q0 -43 21 -111h-82q-25 77 -25 127q0 87 46.5 138t123.5 51zM1192 0l-145 362h-672l-144 -362h-147l557 1378h147l555 -1378h-151zM709 1202l-287 -723h579l-288 723h-4z" />
    <glyph glyph-name="Adieresis" unicode="&#xc4;" horiz-adv-x="1429" 
d="M446 1776h154v-166h-154v166zM829 1776h152v-166h-152v166zM1192 0l-145 362h-672l-144 -362h-147l557 1378h147l555 -1378h-151zM709 1202l-287 -723h579l-288 723h-4z" />
    <glyph glyph-name="Aring" unicode="&#xc5;" horiz-adv-x="1429" 
d="M1192 0l-145 362h-672l-144 -362h-147l528 1311q-62 24 -97.5 76t-35.5 116q0 86 65 147.5t169 61.5q105 0 170 -61.5t65 -147.5q0 -63 -35 -114.5t-98 -77.5l528 -1311h-151zM713 1636q-67 0 -107.5 -38t-40.5 -95q0 -58 40 -95.5t108 -37.5q69 0 109 37.5t40 95.5
q0 57 -40 95t-109 38zM711 1206l-289 -727h579z" />
    <glyph glyph-name="AE" unicode="&#xc6;" horiz-adv-x="2050" 
d="M-23 0l936 1364h1024v-121h-802v-493h637v-119h-637v-510h804v-121h-948v365h-600l-248 -365h-166zM987 1243l-518 -764h522v764h-4z" />
    <glyph glyph-name="Ccedilla" unicode="&#xc7;" horiz-adv-x="1409" 
d="M971 -342q0 -94 -68.5 -145.5t-191.5 -51.5q-127 0 -256 54l28 69q112 -45 217 -45q160 0 160 119q0 49 -33.5 77.5t-101.5 28.5q-55 0 -127 -28l-39 55l137 180q-169 9 -294.5 92.5t-190 220.5t-64.5 310v176q0 180 69.5 320.5t205.5 222.5t317 82q105 0 193 -24.5
t148.5 -66.5t103 -97.5t62.5 -117.5t20 -128v-68h-142v53q0 62 -23.5 119t-68.5 104.5t-121 76t-172 28.5q-137 0 -239.5 -64.5t-154.5 -174t-52 -247.5v-213q0 -211 120 -348t326 -137q95 0 171 28.5t121.5 76t69 104.5t23.5 119v53h142v-68q0 -79 -30 -152t-87.5 -134
t-151.5 -100t-213 -46l-120 -149q56 18 104 18q92 0 147.5 -49.5t55.5 -132.5z" />
    <glyph glyph-name="Egrave" unicode="&#xc8;" horiz-adv-x="1271" 
d="M371 1917h174l250 -342h-99zM213 1364h944v-121h-803v-493h639v-119h-639v-510h805v-121h-946v1364z" />
    <glyph glyph-name="Eacute" unicode="&#xc9;" horiz-adv-x="1271" 
d="M1018 1917l-326 -342h-100l250 342h176zM213 1364h944v-121h-803v-493h639v-119h-639v-510h805v-121h-946v1364z" />
    <glyph glyph-name="Ecircumflex" unicode="&#xca;" horiz-adv-x="1271" 
d="M612 1913h146q67 -214 270 -279v-73q-121 23 -209 89t-133 150q-47 -85 -134 -150.5t-208 -88.5v73q201 65 268 279zM213 1364h944v-121h-803v-493h639v-119h-639v-510h805v-121h-946v1364z" />
    <glyph glyph-name="Edieresis" unicode="&#xcb;" horiz-adv-x="1271" 
d="M418 1761h153v-166h-153v166zM801 1761h151v-166h-151v166zM213 1364h944v-121h-803v-493h639v-119h-639v-510h805v-121h-946v1364z" />
    <glyph glyph-name="Igrave" unicode="&#xcc;" horiz-adv-x="593" 
d="M-78 1917h174l250 -342h-98zM225 1364h144v-1364h-144v1364z" />
    <glyph glyph-name="Iacute" unicode="&#xcd;" horiz-adv-x="593" 
d="M672 1917l-324 -342h-100l250 342h174zM225 1364h144v-1364h-144v1364z" />
    <glyph glyph-name="Icircumflex" unicode="&#xce;" horiz-adv-x="593" 
d="M223 1913h146q67 -214 270 -279v-73q-121 23 -209 89t-133 150q-47 -84 -134.5 -150t-207.5 -89v73q201 65 268 279zM225 1364h144v-1364h-144v1364z" />
    <glyph glyph-name="Idieresis" unicode="&#xcf;" horiz-adv-x="593" 
d="M29 1761h153v-166h-153v166zM410 1761h153v-166h-153v166zM225 1364h144v-1364h-144v1364z" />
    <glyph glyph-name="Eth" unicode="&#xd0;" horiz-adv-x="1466" 
d="M1321 610q0 -276 -156.5 -443t-445.5 -167h-488v639h-174v100h174v625h488q147 0 262.5 -45.5t189.5 -127.5t112 -194t38 -247v-140zM375 121h336q230 0 348.5 130.5t118.5 352.5v154q0 223 -119 354t-348 131h-336v-504h448v-100h-448v-518z" />
    <glyph glyph-name="Ntilde" unicode="&#xd1;" horiz-adv-x="1507" 
d="M567 1886q67 0 114.5 -31.5t96.5 -87.5q23 -25 30 -32.5t27.5 -26.5t32.5 -26t31 -14t37 -7q82 0 82 104q0 43 -21 111h82q25 -78 25 -127q0 -87 -46.5 -137.5t-123.5 -50.5q-47 0 -89 19t-66.5 40t-57.5 57q-59 66 -84 84q-36 25 -72 25q-40 0 -62 -27t-22 -78
q0 -42 21 -110h-80q-25 65 -25 127q0 87 46 137.5t124 50.5zM213 1364h137l805 -1120h4v1120h135v-1364h-131l-813 1130h-4v-1130h-133v1364z" />
    <glyph glyph-name="Ograve" unicode="&#xd2;" horiz-adv-x="1495" 
d="M432 1927h176l250 -342h-100zM748 1395q279 0 439.5 -171t160.5 -462v-160q0 -291 -160.5 -462t-439.5 -171q-280 0 -440.5 171t-160.5 462v160q0 290 161.5 461.5t439.5 171.5zM748 1274q-209 0 -332 -136t-123 -362v-188q0 -226 123 -362t332 -136t332.5 136t123.5 362
v188q0 226 -122.5 362t-333.5 136z" />
    <glyph glyph-name="Oacute" unicode="&#xd3;" horiz-adv-x="1495" 
d="M1079 1927l-325 -342h-99l250 342h174zM748 1395q279 0 439.5 -171t160.5 -462v-160q0 -291 -160.5 -462t-439.5 -171q-280 0 -440.5 171t-160.5 462v160q0 290 161.5 461.5t439.5 171.5zM748 1274q-209 0 -332 -136t-123 -362v-188q0 -226 123 -362t332 -136t332.5 136
t123.5 362v188q0 226 -122.5 362t-333.5 136z" />
    <glyph glyph-name="Ocircumflex" unicode="&#xd4;" horiz-adv-x="1495" 
d="M674 1923h147q63 -212 269 -278v-74q-121 25 -208 90t-134 149q-47 -84 -134 -149t-208 -90v74q205 65 268 278zM748 1395q279 0 439.5 -171t160.5 -462v-160q0 -291 -160.5 -462t-439.5 -171q-280 0 -440.5 171t-160.5 462v160q0 290 161.5 461.5t439.5 171.5zM748 1274
q-209 0 -332 -136t-123 -362v-188q0 -226 123 -362t332 -136t332.5 136t123.5 362v188q0 226 -122.5 362t-333.5 136z" />
    <glyph glyph-name="Otilde" unicode="&#xd5;" horiz-adv-x="1495" 
d="M565 1896q66 0 115 -31.5t96 -86.5q3 -4 15.5 -17.5t17 -17.5t15.5 -15.5t16.5 -16t16 -13t18.5 -12t18 -8t20 -6t21 -1.5q82 0 82 105q0 42 -21 110h80q25 -65 25 -127q0 -87 -46 -137.5t-124 -50.5q-46 0 -88 19.5t-65.5 40.5t-57.5 57q-3 3 -8 9q-30 34 -47 50.5
t-45.5 32.5t-57.5 16q-82 0 -82 -104q0 -43 21 -111h-82q-23 71 -23 127q0 87 46 137.5t124 50.5zM748 1395q279 0 439.5 -171t160.5 -462v-160q0 -291 -160.5 -462t-439.5 -171q-280 0 -440.5 171t-160.5 462v160q0 290 161.5 461.5t439.5 171.5zM748 1274
q-209 0 -332 -136t-123 -362v-188q0 -226 123 -362t332 -136t332.5 136t123.5 362v188q0 226 -122.5 362t-333.5 136z" />
    <glyph glyph-name="Odieresis" unicode="&#xd6;" horiz-adv-x="1495" 
d="M481 1774h152v-166h-152v166zM862 1774h152v-166h-152v166zM748 1395q279 0 439.5 -171t160.5 -462v-160q0 -291 -160.5 -462t-439.5 -171q-280 0 -440.5 171t-160.5 462v160q0 290 161.5 461.5t439.5 171.5zM748 1274q-209 0 -332 -136t-123 -362v-188q0 -226 123 -362
t332 -136t332.5 136t123.5 362v188q0 226 -122.5 362t-333.5 136z" />
    <glyph glyph-name="multiply" unicode="&#xd7;" horiz-adv-x="1257" 
d="M952 287l-323 313l-322 -315l-84 82l322 315l-322 313l84 82l322 -313l323 313l84 -80l-323 -315l323 -315z" />
    <glyph glyph-name="Oslash" unicode="&#xd8;" horiz-adv-x="1495" 
d="M748 -31q-228 0 -377 115l-142 -174l-82 61l146 187q-146 172 -146 444v160q0 290 161.5 461.5t439.5 171.5q226 0 378 -115l140 174l82 -61l-144 -189q144 -171 144 -442v-160q0 -291 -160.5 -462t-439.5 -171zM291 588q0 -190 88 -320l665 908q-121 100 -296 100
q-209 0 -333 -137t-124 -363v-188zM1204 776q0 191 -88 318l-663 -906q121 -100 295 -100q209 0 332.5 137t123.5 363v188z" />
    <glyph glyph-name="Ugrave" unicode="&#xd9;" horiz-adv-x="1445" 
d="M408 1903h176l250 -342h-101zM193 1364h143v-872q0 -191 102.5 -293.5t286.5 -102.5q183 0 285 103t102 293v872h141v-872q0 -248 -140.5 -383.5t-391.5 -135.5q-250 0 -389 135.5t-139 383.5v872z" />
    <glyph glyph-name="Uacute" unicode="&#xda;" horiz-adv-x="1445" 
d="M1055 1903l-326 -342h-98l250 342h174zM193 1364h143v-872q0 -191 102.5 -293.5t286.5 -102.5q183 0 285 103t102 293v872h141v-872q0 -248 -140.5 -383.5t-391.5 -135.5q-250 0 -389 135.5t-139 383.5v872z" />
    <glyph glyph-name="Ucircumflex" unicode="&#xdb;" horiz-adv-x="1445" 
d="M649 1898h148q62 -210 268 -278v-74q-121 25 -208 91t-134 151q-47 -85 -134 -151t-208 -91v74q206 68 268 278zM193 1364h143v-872q0 -191 102.5 -293.5t286.5 -102.5q183 0 285 103t102 293v872h141v-872q0 -248 -140.5 -383.5t-391.5 -135.5q-250 0 -389 135.5
t-139 383.5v872z" />
    <glyph glyph-name="Udieresis" unicode="&#xdc;" horiz-adv-x="1445" 
d="M457 1749h151v-166h-151v166zM838 1749h151v-166h-151v166zM193 1364h143v-872q0 -191 102.5 -293.5t286.5 -102.5q183 0 285 103t102 293v872h141v-872q0 -248 -140.5 -383.5t-391.5 -135.5q-250 0 -389 135.5t-139 383.5v872z" />
    <glyph glyph-name="Yacute" unicode="&#xdd;" horiz-adv-x="1327" 
d="M997 1903l-323 -342h-101l250 342h174zM66 1364h163l441 -700l432 700h158l-523 -829v-535h-145v537z" />
    <glyph glyph-name="Thorn" unicode="&#xde;" horiz-adv-x="1314" 
d="M213 1364h143v-274h422q224 0 335.5 -98t111.5 -275v-70q0 -180 -112.5 -276.5t-340.5 -96.5h-416v-274h-143v1364zM356 973v-582h410q166 0 240.5 65.5t74.5 198.5v56q0 262 -315 262h-410z" />
    <glyph glyph-name="germandbls" unicode="&#xdf;" horiz-adv-x="1163" 
d="M592 1430q181 0 281 -91t100 -245v-25q0 -236 -232 -289v-4q158 -34 238 -137t80 -240v-30q0 -171 -102 -275t-295 -104q-98 0 -185 24v103q79 -23 164 -23q135 0 207 74.5t72 202.5v28q0 132 -96 218.5t-287 93.5v98q156 6 230.5 69.5t74.5 184.5v27q0 108 -64 170.5
t-186 62.5q-135 0 -207 -82t-72 -240v-1001h-135v991q0 211 109 325t305 114z" />
    <glyph glyph-name="agrave" unicode="&#xe0;" horiz-adv-x="1091" 
d="M229 1561h177l253 -394h-94zM780 182q-136 -202 -379 -202q-134 0 -207 67.5t-73 188.5q0 84 38 143.5t122 101.5q144 72 499 97v65q0 231 -243 231q-119 0 -188.5 -53.5t-69.5 -146.5v-15h-125v19q0 136 100.5 223.5t284.5 87.5q185 0 277.5 -88.5t92.5 -255.5v-405
q0 -95 25.5 -122.5t103.5 -27.5v-96h-51q-97 0 -148 40t-59 148zM254 242q0 -156 180 -156q83 0 164 41.5t131.5 105.5t50.5 127v125q-306 -21 -415 -77q-62 -29 -86.5 -69t-24.5 -97z" />
    <glyph glyph-name="aacute" unicode="&#xe1;" horiz-adv-x="1091" 
d="M874 1561l-335 -394h-97l256 394h176zM780 182q-136 -202 -379 -202q-134 0 -207 67.5t-73 188.5q0 84 38 143.5t122 101.5q144 72 499 97v65q0 231 -243 231q-119 0 -188.5 -53.5t-69.5 -146.5v-15h-125v19q0 136 100.5 223.5t284.5 87.5q185 0 277.5 -88.5t92.5 -255.5
v-405q0 -95 25.5 -122.5t103.5 -27.5v-96h-51q-97 0 -148 40t-59 148zM254 242q0 -156 180 -156q83 0 164 41.5t131.5 105.5t50.5 127v125q-306 -21 -415 -77q-62 -29 -86.5 -69t-24.5 -97z" />
    <glyph glyph-name="acircumflex" unicode="&#xe2;" horiz-adv-x="1091" 
d="M467 1556h135q63 -253 254 -327v-76q-111 27 -197.5 105t-123.5 180q-38 -102 -124 -180t-198 -105v76q194 76 254 327zM780 182q-136 -202 -379 -202q-134 0 -207 67.5t-73 188.5q0 84 38 143.5t122 101.5q144 72 499 97v65q0 231 -243 231q-119 0 -188.5 -53.5
t-69.5 -146.5v-15h-125v19q0 136 100.5 223.5t284.5 87.5q185 0 277.5 -88.5t92.5 -255.5v-405q0 -95 25.5 -122.5t103.5 -27.5v-96h-51q-97 0 -148 40t-59 148zM254 242q0 -156 180 -156q83 0 164 41.5t131.5 105.5t50.5 127v125q-306 -21 -415 -77q-62 -29 -86.5 -69
t-24.5 -97z" />
    <glyph glyph-name="atilde" unicode="&#xe3;" horiz-adv-x="1091" 
d="M369 1493q35 0 65 -11t56.5 -34t43 -41.5t41.5 -50.5q26 -34 41.5 -51.5t40 -33.5t48.5 -16q36 0 59.5 26.5t23.5 80.5q0 51 -16 123h78q22 -72 22 -139q0 -92 -48 -142.5t-122 -50.5q-28 0 -54.5 9.5t-42 18t-41.5 34.5t-32.5 33.5t-33.5 39.5q-27 35 -42 52t-40 34
t-49 17q-37 0 -60.5 -26t-23.5 -81q0 -49 16 -121h-78q-22 68 -22 137q0 93 48 143t122 50zM780 182q-136 -202 -379 -202q-134 0 -207 67.5t-73 188.5q0 84 38 143.5t122 101.5q144 72 499 97v65q0 231 -243 231q-119 0 -188.5 -53.5t-69.5 -146.5v-15h-125v19
q0 136 100.5 223.5t284.5 87.5q185 0 277.5 -88.5t92.5 -255.5v-405q0 -95 25.5 -122.5t103.5 -27.5v-96h-51q-97 0 -148 40t-59 148zM254 242q0 -156 180 -156q83 0 164 41.5t131.5 105.5t50.5 127v125q-306 -21 -415 -77q-62 -29 -86.5 -69t-24.5 -97z" />
    <glyph glyph-name="adieresis" unicode="&#xe4;" horiz-adv-x="1091" 
d="M287 1356h151v-166h-151v166zM631 1356h153v-166h-153v166zM780 182q-136 -202 -379 -202q-134 0 -207 67.5t-73 188.5q0 84 38 143.5t122 101.5q144 72 499 97v65q0 231 -243 231q-119 0 -188.5 -53.5t-69.5 -146.5v-15h-125v19q0 136 100.5 223.5t284.5 87.5
q185 0 277.5 -88.5t92.5 -255.5v-405q0 -95 25.5 -122.5t103.5 -27.5v-96h-51q-97 0 -148 40t-59 148zM254 242q0 -156 180 -156q83 0 164 41.5t131.5 105.5t50.5 127v125q-306 -21 -415 -77q-62 -29 -86.5 -69t-24.5 -97z" />
    <glyph glyph-name="aring" unicode="&#xe5;" horiz-adv-x="1091" 
d="M535 1563q103 0 167 -61.5t64 -147.5q0 -89 -64 -150t-167 -61q-102 0 -166 61.5t-64 149.5q0 86 64.5 147.5t165.5 61.5zM535 1485q-65 0 -105.5 -38t-40.5 -93q0 -58 40.5 -96.5t105.5 -38.5t105 38.5t40 96.5q0 55 -40 93t-105 38zM780 182q-136 -202 -379 -202
q-134 0 -207 67.5t-73 188.5q0 84 38 143.5t122 101.5q144 72 499 97v65q0 231 -243 231q-119 0 -188.5 -53.5t-69.5 -146.5v-15h-125v19q0 136 100.5 223.5t284.5 87.5q185 0 277.5 -88.5t92.5 -255.5v-405q0 -95 25.5 -122.5t103.5 -27.5v-96h-51q-97 0 -148 40t-59 148z
M254 242q0 -156 180 -156q83 0 164 41.5t131.5 105.5t50.5 127v125q-306 -21 -415 -77q-62 -29 -86.5 -69t-24.5 -97z" />
    <glyph glyph-name="ae" unicode="&#xe6;" horiz-adv-x="1736" 
d="M1628 293q0 -142 -109 -232t-288 -90q-162 0 -263.5 67t-144.5 187q-58 -123 -165 -186.5t-248 -63.5q-139 0 -214 67.5t-75 188.5q0 84 38 144t122 102q148 74 497 96v76q0 115 -58.5 170t-182.5 55q-118 0 -187 -54t-69 -146v-17h-127v21q0 136 100.5 223.5t284.5 87.5
q263 0 329 -188q114 190 346 190q105 0 185.5 -36t130.5 -100.5t75 -148.5t25 -184v-69h-721v-29q0 -153 77.5 -245.5t244.5 -92.5q125 0 198.5 59.5t73.5 151.5v6h125v-10zM1212 879q-139 0 -218 -91.5t-85 -240.5h590q-3 150 -74 241t-213 91zM256 238q0 -156 180 -156
q139 0 240.5 87.5t101.5 211.5v100q-297 -18 -411 -75q-62 -31 -86.5 -71t-24.5 -97z" />
    <glyph glyph-name="ccedilla" unicode="&#xe7;" horiz-adv-x="1042" 
d="M786 -342q0 -94 -68 -145.5t-190 -51.5q-131 0 -256 54l29 69q109 -45 217 -45q160 0 160 119q0 49 -34 77.5t-101 28.5q-55 0 -127 -28l-39 55l139 182q-196 10 -300.5 136t-104.5 335v70q0 217 116.5 347t327.5 130q95 0 171 -28.5t123 -76.5t72 -107.5t25 -125.5v-12
h-127v4q0 42 -14.5 81.5t-43.5 74t-82 55.5t-122 21q-154 0 -233.5 -96t-79.5 -261v-82q0 -164 78.5 -258t230.5 -94q69 0 122.5 21t83.5 55.5t45 73.5t15 81v5h127v-13q0 -81 -37.5 -152t-117 -122t-187.5 -62l-123 -151q56 18 105 18q92 0 146 -49.5t54 -132.5z" />
    <glyph glyph-name="egrave" unicode="&#xe8;" horiz-adv-x="1069" 
d="M242 1563h176l254 -394h-94zM958 289q0 -141 -108.5 -229.5t-288.5 -88.5q-114 0 -201.5 35t-141 98.5t-80.5 146.5t-27 183v80q0 206 116.5 341.5t317.5 135.5q105 0 185.5 -36t130.5 -100.5t75 -148.5t25 -184v-69h-719v-29q0 -73 17.5 -132.5t54 -106.5t100 -73
t149.5 -26q125 0 199 58t74 149v6h122v-10zM543 879q-137 0 -216 -92t-85 -240h589q-3 151 -74 241.5t-214 90.5z" />
    <glyph glyph-name="eacute" unicode="&#xe9;" horiz-adv-x="1069" 
d="M887 1563l-336 -394h-96l256 394h176zM958 289q0 -141 -108.5 -229.5t-288.5 -88.5q-114 0 -201.5 35t-141 98.5t-80.5 146.5t-27 183v80q0 206 116.5 341.5t317.5 135.5q105 0 185.5 -36t130.5 -100.5t75 -148.5t25 -184v-69h-719v-29q0 -73 17.5 -132.5t54 -106.5
t100 -73t149.5 -26q125 0 199 58t74 149v6h122v-10zM543 879q-137 0 -216 -92t-85 -240h589q-3 151 -74 241.5t-214 90.5z" />
    <glyph glyph-name="ecircumflex" unicode="&#xea;" horiz-adv-x="1069" 
d="M479 1559h135q63 -254 254 -328v-76q-111 27 -197.5 105t-123.5 180q-38 -102 -124 -180t-198 -105v76q194 76 254 328zM958 289q0 -141 -108.5 -229.5t-288.5 -88.5q-114 0 -201.5 35t-141 98.5t-80.5 146.5t-27 183v80q0 206 116.5 341.5t317.5 135.5q105 0 185.5 -36
t130.5 -100.5t75 -148.5t25 -184v-69h-719v-29q0 -73 17.5 -132.5t54 -106.5t100 -73t149.5 -26q125 0 199 58t74 149v6h122v-10zM543 879q-137 0 -216 -92t-85 -240h589q-3 151 -74 241.5t-214 90.5z" />
    <glyph glyph-name="edieresis" unicode="&#xeb;" horiz-adv-x="1069" 
d="M299 1358h152v-166h-152v166zM643 1358h154v-166h-154v166zM958 289q0 -141 -108.5 -229.5t-288.5 -88.5q-114 0 -201.5 35t-141 98.5t-80.5 146.5t-27 183v80q0 206 116.5 341.5t317.5 135.5q105 0 185.5 -36t130.5 -100.5t75 -148.5t25 -184v-69h-719v-29
q0 -73 17.5 -132.5t54 -106.5t100 -73t149.5 -26q125 0 199 58t74 149v6h122v-10zM543 879q-137 0 -216 -92t-85 -240h589q-3 151 -74 241.5t-214 90.5z" />
    <glyph glyph-name="igrave" unicode="&#xec;" horiz-adv-x="503" 
d="M-131 1554h174l256 -393h-94zM184 963h135v-963h-135v963z" />
    <glyph glyph-name="iacute" unicode="&#xed;" horiz-adv-x="503" 
d="M635 1554l-336 -393h-94l256 393h174zM184 963h135v-963h-135v963z" />
    <glyph glyph-name="icircumflex" unicode="&#xee;" horiz-adv-x="503" 
d="M186 1550h133q63 -253 254 -327v-76q-111 29 -197.5 106.5t-123.5 178.5q-37 -101 -123.5 -178.5t-198.5 -106.5v76q193 75 256 327zM184 963h135v-963h-135v963z" />
    <glyph glyph-name="idieresis" unicode="&#xef;" horiz-adv-x="503" 
d="M4 1350h152v-166h-152v166zM348 1350h154v-166h-154v166zM184 963h135v-963h-135v963z" />
    <glyph glyph-name="eth" unicode="&#xf0;" horiz-adv-x="1110" 
d="M1004 455q0 -228 -120.5 -356t-330.5 -128q-202 0 -324.5 118.5t-122.5 328.5v98q0 209 116.5 328t307.5 119q110 0 198.5 -50.5t145.5 -140.5q-53 229 -210 412l-261 -103l-30 72l233 92q-104 97 -213 164v8h150q95 -60 168 -131l250 98l30 -71l-223 -88
q114 -129 175 -287.5t61 -333.5v-149zM553 856q-141 0 -226 -86.5t-85 -241.5v-118q0 -155 85 -240.5t226 -85.5t227 85.5t86 240.5v120q0 151 -86.5 238.5t-226.5 87.5z" />
    <glyph glyph-name="ntilde" unicode="&#xf1;" horiz-adv-x="1163" 
d="M412 1509q28 0 55 -9.5t44.5 -19.5t41 -33.5t33 -35t32.5 -39.5q26 -33 41.5 -51t40 -33.5t48.5 -15.5q37 0 60 25.5t23 80.5q0 54 -18 121h80q22 -68 22 -137q0 -93 -48 -143t-122 -50q-32 0 -60.5 10t-53 30.5t-41 38.5t-40.5 46q-6 7 -9 11q-27 34 -42 50.5t-40 33
t-49 16.5q-37 0 -60.5 -25.5t-23.5 -79.5q0 -50 16 -122h-78q-22 72 -22 137q0 93 48 143.5t122 50.5zM178 963h111l14 -209q73 113 163.5 172t213.5 59q146 0 230.5 -89t84.5 -239v-657h-135v643q0 102 -58 163.5t-161 61.5q-133 0 -230.5 -95t-97.5 -206v-567h-135v963z
" />
    <glyph glyph-name="ograve" unicode="&#xf2;" horiz-adv-x="1112" 
d="M252 1563h174l256 -394h-96zM557 991q205 0 326 -130.5t121 -334.5v-92q0 -201 -124.5 -332t-324.5 -131q-202 0 -324 130t-122 331v92q0 204 120.5 335.5t327.5 131.5zM555 879q-145 0 -228 -97t-83 -247v-111q0 -148 86 -244t225 -96q140 0 226.5 96t86.5 244v111
q0 149 -84.5 246.5t-228.5 97.5z" />
    <glyph glyph-name="oacute" unicode="&#xf3;" horiz-adv-x="1112" 
d="M895 1563l-336 -394h-94l256 394h174zM557 991q205 0 326 -130.5t121 -334.5v-92q0 -201 -124.5 -332t-324.5 -131q-202 0 -324 130t-122 331v92q0 204 120.5 335.5t327.5 131.5zM555 879q-145 0 -228 -97t-83 -247v-111q0 -148 86 -244t225 -96q140 0 226.5 96t86.5 244
v111q0 149 -84.5 246.5t-228.5 97.5z" />
    <glyph glyph-name="ocircumflex" unicode="&#xf4;" horiz-adv-x="1112" 
d="M489 1559h134q62 -249 254 -328v-76q-112 29 -198 106.5t-122 178.5q-37 -101 -123.5 -178.5t-197.5 -106.5v76q191 78 253 328zM557 991q205 0 326 -130.5t121 -334.5v-92q0 -201 -124.5 -332t-324.5 -131q-202 0 -324 130t-122 331v92q0 204 120.5 335.5t327.5 131.5z
M555 879q-145 0 -228 -97t-83 -247v-111q0 -148 86 -244t225 -96q140 0 226.5 96t86.5 244v111q0 149 -84.5 246.5t-228.5 97.5z" />
    <glyph glyph-name="otilde" unicode="&#xf5;" horiz-adv-x="1112" 
d="M389 1495q36 0 66 -10.5t57.5 -35t42 -40t41.5 -49.5q38 -50 66.5 -75t64.5 -25t59 25.5t23 78.5q0 63 -16 123h77q25 -81 25 -137q0 -93 -48.5 -144t-121.5 -51q-34 0 -64 11t-57 34.5t-42.5 40.5t-41.5 49q-53 65 -76 82q-28 21 -57 21q-36 0 -59 -26t-23 -81
q0 -57 17 -121h-78q-25 77 -25 138q0 92 48.5 142t121.5 50zM557 991q205 0 326 -130.5t121 -334.5v-92q0 -201 -124.5 -332t-324.5 -131q-202 0 -324 130t-122 331v92q0 204 120.5 335.5t327.5 131.5zM555 879q-145 0 -228 -97t-83 -247v-111q0 -148 86 -244t225 -96
q140 0 226.5 96t86.5 244v111q0 149 -84.5 246.5t-228.5 97.5z" />
    <glyph glyph-name="odieresis" unicode="&#xf6;" horiz-adv-x="1112" 
d="M307 1358h154v-166h-154v166zM653 1358h152v-166h-152v166zM557 991q205 0 326 -130.5t121 -334.5v-92q0 -201 -124.5 -332t-324.5 -131q-202 0 -324 130t-122 331v92q0 204 120.5 335.5t327.5 131.5zM555 879q-145 0 -228 -97t-83 -247v-111q0 -148 86 -244t225 -96
q140 0 226.5 96t86.5 244v111q0 149 -84.5 246.5t-228.5 97.5z" />
    <glyph glyph-name="divide" unicode="&#xf7;" horiz-adv-x="1294" 
d="M561 1096h172v-156h-172v156zM186 741h922v-116h-922v116zM561 424h172v-156h-172v156z" />
    <glyph glyph-name="oslash" unicode="&#xf8;" horiz-adv-x="1112" 
d="M555 -29q-158 0 -272 84l-113 -139l-70 55l115 148q-106 121 -106 313v92q0 204 120.5 335.5t327.5 131.5q160 0 274 -84l111 140l70 -56l-115 -145q107 -125 107 -320v-92q0 -201 -124.5 -332t-324.5 -131zM242 424q0 -117 55 -207l459 596q-81 68 -201 68
q-146 0 -229.5 -97.5t-83.5 -248.5v-111zM870 535q0 122 -57 210l-457 -593q82 -70 199 -70q140 0 227.5 96.5t87.5 245.5v111z" />
    <glyph glyph-name="ugrave" unicode="&#xf9;" horiz-adv-x="1163" 
d="M272 1540h174l256 -393h-94zM168 963h135v-641q0 -103 58 -165.5t161 -62.5q89 0 166 46.5t119.5 115.5t42.5 139v568h137v-963h-113l-14 211q-72 -114 -162 -174t-213 -60q-147 0 -232 89.5t-85 240.5v656z" />
    <glyph glyph-name="uacute" unicode="&#xfa;" horiz-adv-x="1163" 
d="M915 1540l-335 -393h-95l256 393h174zM168 963h135v-641q0 -103 58 -165.5t161 -62.5q89 0 166 46.5t119.5 115.5t42.5 139v568h137v-963h-113l-14 211q-72 -114 -162 -174t-213 -60q-147 0 -232 89.5t-85 240.5v656z" />
    <glyph glyph-name="ucircumflex" unicode="&#xfb;" horiz-adv-x="1163" 
d="M510 1536h135q59 -249 254 -328v-75q-112 29 -198 106t-123 178q-37 -101 -124 -178t-198 -106v75q191 77 254 328zM168 963h135v-641q0 -103 58 -165.5t161 -62.5q89 0 166 46.5t119.5 115.5t42.5 139v568h137v-963h-113l-14 211q-72 -114 -162 -174t-213 -60
q-147 0 -232 89.5t-85 240.5v656z" />
    <glyph glyph-name="udieresis" unicode="&#xfc;" horiz-adv-x="1163" 
d="M328 1335h153v-166h-153v166zM674 1335h151v-166h-151v166zM168 963h135v-641q0 -103 58 -165.5t161 -62.5q89 0 166 46.5t119.5 115.5t42.5 139v568h137v-963h-113l-14 211q-72 -114 -162 -174t-213 -60q-147 0 -232 89.5t-85 240.5v656z" />
    <glyph glyph-name="yacute" unicode="&#xfd;" horiz-adv-x="1046" 
d="M874 1540l-335 -393h-97l256 393h176zM68 963h143l326 -822l315 822h141l-391 -965q-75 -177 -154.5 -247t-222.5 -70h-63v114h43q97 0 148 36t87 118l21 49z" />
    <glyph glyph-name="thorn" unicode="&#xfe;" horiz-adv-x="1175" 
d="M178 1417h131v-657q60 106 144.5 166.5t214.5 60.5q122 0 212.5 -61.5t136.5 -164t46 -229.5v-102q0 -195 -109 -324t-290 -129q-67 0 -123.5 17t-98.5 48.5t-71.5 64.5t-57.5 77v-501h-135v1734zM637 874q-130 0 -227 -104t-97 -258v-61q0 -154 97 -258.5t227 -104.5
q136 0 213.5 99.5t77.5 248.5v90q0 149 -77.5 248.5t-213.5 99.5z" />
    <glyph glyph-name="ydieresis" unicode="&#xff;" horiz-adv-x="1046" 
d="M287 1335h151v-166h-151v166zM631 1335h153v-166h-153v166zM68 963h143l326 -822l315 822h141l-391 -965q-75 -177 -154.5 -247t-222.5 -70h-63v114h43q97 0 148 36t87 118l21 49z" />
    <glyph glyph-name="Amacron" unicode="&#x100;" horiz-adv-x="1429" 
d="M387 1743h655v-103h-655v103zM1192 0l-145 362h-672l-144 -362h-147l557 1378h147l555 -1378h-151zM709 1202l-287 -723h579l-288 723h-4z" />
    <glyph glyph-name="amacron" unicode="&#x101;" horiz-adv-x="1091" 
d="M213 1323h643v-102h-643v102zM780 182q-136 -202 -379 -202q-134 0 -207 67.5t-73 188.5q0 84 38 143.5t122 101.5q144 72 499 97v65q0 231 -243 231q-119 0 -188.5 -53.5t-69.5 -146.5v-15h-125v19q0 136 100.5 223.5t284.5 87.5q185 0 277.5 -88.5t92.5 -255.5v-405
q0 -95 25.5 -122.5t103.5 -27.5v-96h-51q-97 0 -148 40t-59 148zM254 242q0 -156 180 -156q83 0 164 41.5t131.5 105.5t50.5 127v125q-306 -21 -415 -77q-62 -29 -86.5 -69t-24.5 -97z" />
    <glyph glyph-name="Abreve" unicode="&#x102;" horiz-adv-x="1429" 
d="M715 1683q225 0 225 138q0 45 -16 110h71q31 -77 31 -141q0 -103 -86.5 -158t-224.5 -55t-225 55t-87 158q0 59 29 141h72q-15 -74 -15 -110q0 -138 226 -138zM1192 0l-145 362h-672l-144 -362h-147l557 1378h147l555 -1378h-151zM709 1202l-287 -723h579l-288 723h-4z
" />
    <glyph glyph-name="abreve" unicode="&#x103;" horiz-adv-x="1091" 
d="M535 1268q107 0 155.5 37.5t48.5 119.5q0 45 -12 119h74q24 -84 24 -153q0 -118 -80 -177t-210 -59q-129 0 -210 59.5t-81 176.5q0 69 24 153h76q-12 -76 -12 -119q0 -82 48 -119.5t155 -37.5zM780 182q-136 -202 -379 -202q-134 0 -207 67.5t-73 188.5q0 84 38 143.5
t122 101.5q144 72 499 97v65q0 231 -243 231q-119 0 -188.5 -53.5t-69.5 -146.5v-15h-125v19q0 136 100.5 223.5t284.5 87.5q185 0 277.5 -88.5t92.5 -255.5v-405q0 -95 25.5 -122.5t103.5 -27.5v-96h-51q-97 0 -148 40t-59 148zM254 242q0 -156 180 -156q83 0 164 41.5
t131.5 105.5t50.5 127v125q-306 -21 -415 -77q-62 -29 -86.5 -69t-24.5 -97z" />
    <glyph glyph-name="Aogonek" unicode="&#x104;" horiz-adv-x="1429" 
d="M1432 -481q-81 -58 -189 -58q-102 0 -160.5 51.5t-58.5 135.5q0 50 29 116q43 82 155 191l-161 407h-672l-144 -362h-147l557 1378h147l555 -1378q-143 -153 -178 -221q-28 -61 -28 -111q0 -59 33.5 -89t91.5 -30q66 0 133 37zM711 1206l-289 -727h577z" />
    <glyph glyph-name="aogonek" unicode="&#x105;" horiz-adv-x="1091" 
d="M1128 -481q-81 -58 -188 -58q-102 0 -160.5 51.5t-58.5 135.5q0 50 29 116q51 93 196 232q-75 6 -116 48.5t-50 137.5q-136 -202 -379 -202q-134 0 -207 67.5t-73 188.5q0 84 38 143.5t122 101.5q144 72 499 97v65q0 231 -243 231q-119 0 -188.5 -53.5t-69.5 -146.5v-15
h-125v19q0 136 100.5 223.5t284.5 87.5q185 0 277.5 -88.5t92.5 -255.5v-405q0 -95 25.5 -122.5t103.5 -27.5v-96q-83 -89 -120 -133t-56 -82q-28 -61 -28 -111q0 -60 33 -89.5t91 -29.5q67 0 134 37zM254 242q0 -156 180 -156q83 0 164 41.5t131.5 105.5t50.5 127v125
q-306 -21 -415 -77q-62 -29 -86.5 -69t-24.5 -97z" />
    <glyph glyph-name="Cacute" unicode="&#x106;" horiz-adv-x="1409" 
d="M1065 1927l-326 -342h-100l250 342h176zM739 1395q105 0 193 -24.5t148.5 -66.5t103 -97.5t62.5 -117.5t20 -128v-68h-142v53q0 62 -23.5 119t-68.5 104.5t-121 76t-172 28.5q-137 0 -239.5 -64.5t-154.5 -174t-52 -247.5v-213q0 -211 120 -348t326 -137q95 0 171 28.5
t121.5 76t69 104.5t23.5 119v53h142v-68q0 -82 -33 -158t-96 -138.5t-166.5 -100t-233.5 -37.5q-181 0 -316.5 82t-204.5 222.5t-69 320.5v176q0 180 69.5 320.5t205.5 222.5t317 82z" />
    <glyph glyph-name="cacute" unicode="&#x107;" horiz-adv-x="1042" 
d="M889 1563l-336 -394h-94l256 394h174zM553 86q69 0 122.5 21t83.5 55.5t45 73.5t15 81v5h127v-13q0 -64 -25.5 -124t-73.5 -108t-124.5 -77t-169.5 -29q-214 0 -328 126.5t-114 346.5v70q0 217 116.5 347t327.5 130q95 0 171 -28.5t123 -76.5t72 -107.5t25 -125.5v-12
h-127v4q0 42 -14.5 81.5t-43.5 74t-82 55.5t-122 21q-154 0 -233.5 -96t-79.5 -261v-82q0 -164 78.5 -258t230.5 -94z" />
    <glyph glyph-name="Cdotaccent" unicode="&#x10a;" horiz-adv-x="1409" 
d="M651 1767h162v-161h-162v161zM739 1395q105 0 193 -24.5t148.5 -66.5t103 -97.5t62.5 -117.5t20 -128v-68h-142v53q0 62 -23.5 119t-68.5 104.5t-121 76t-172 28.5q-137 0 -239.5 -64.5t-154.5 -174t-52 -247.5v-213q0 -211 120 -348t326 -137q95 0 171 28.5t121.5 76
t69 104.5t23.5 119v53h142v-68q0 -82 -33 -158t-96 -138.5t-166.5 -100t-233.5 -37.5q-181 0 -316.5 82t-204.5 222.5t-69 320.5v176q0 180 69.5 320.5t205.5 222.5t317 82z" />
    <glyph glyph-name="cdotaccent" unicode="&#x10b;" horiz-adv-x="1042" 
d="M469 1354h162v-162h-162v162zM553 86q69 0 122.5 21t83.5 55.5t45 73.5t15 81v5h127v-13q0 -64 -25.5 -124t-73.5 -108t-124.5 -77t-169.5 -29q-214 0 -328 126.5t-114 346.5v70q0 217 116.5 347t327.5 130q95 0 171 -28.5t123 -76.5t72 -107.5t25 -125.5v-12h-127v4
q0 42 -14.5 81.5t-43.5 74t-82 55.5t-122 21q-154 0 -233.5 -96t-79.5 -261v-82q0 -164 78.5 -258t230.5 -94z" />
    <glyph glyph-name="Ccaron" unicode="&#x10c;" horiz-adv-x="1409" 
d="M391 1952q121 -25 208 -91t134 -151q45 85 132.5 151t209.5 91v-76q-205 -65 -268 -277h-148q-66 212 -268 277v76zM739 1395q105 0 193 -24.5t148.5 -66.5t103 -97.5t62.5 -117.5t20 -128v-68h-142v53q0 62 -23.5 119t-68.5 104.5t-121 76t-172 28.5
q-137 0 -239.5 -64.5t-154.5 -174t-52 -247.5v-213q0 -211 120 -348t326 -137q95 0 171 28.5t121.5 76t69 104.5t23.5 119v53h142v-68q0 -82 -33 -158t-96 -138.5t-166.5 -100t-233.5 -37.5q-181 0 -316.5 82t-204.5 222.5t-69 320.5v176q0 180 69.5 320.5t205.5 222.5
t317 82z" />
    <glyph glyph-name="ccaron" unicode="&#x10d;" horiz-adv-x="1042" 
d="M229 1583q112 -29 198.5 -107t123.5 -180q36 102 121.5 180t197.5 107v-76q-192 -79 -254 -327h-133q-62 248 -254 327v76zM553 86q69 0 122.5 21t83.5 55.5t45 73.5t15 81v5h127v-13q0 -64 -25.5 -124t-73.5 -108t-124.5 -77t-169.5 -29q-214 0 -328 126.5t-114 346.5
v70q0 217 116.5 347t327.5 130q95 0 171 -28.5t123 -76.5t72 -107.5t25 -125.5v-12h-127v4q0 42 -14.5 81.5t-43.5 74t-82 55.5t-122 21q-154 0 -233.5 -96t-79.5 -261v-82q0 -164 78.5 -258t230.5 -94z" />
    <glyph glyph-name="Dcaron" unicode="&#x10e;" horiz-adv-x="1447" 
d="M352 1942q122 -25 209.5 -91t132.5 -151q47 85 134 151t208 91v-76q-205 -65 -268 -277h-147q-63 211 -269 277v76zM213 1364h487q147 0 262.5 -45.5t189.5 -127.5t112.5 -194t38.5 -247v-140q0 -276 -157 -443t-446 -167h-487v1364zM356 1243v-1122h338q229 0 347 131
t118 354v152q0 223 -119 354t-348 131h-336z" />
    <glyph glyph-name="dcaron" unicode="&#x10f;" horiz-adv-x="1175" 
d="M1186 1417h129l-70 -370h-76zM862 1417h135v-1417h-110l-13 213q-62 -111 -147 -173.5t-219 -62.5q-182 0 -288.5 129t-106.5 324v102q0 195 109 324t290 129q67 0 123.5 -17t98.5 -48.5t71 -64.5t57 -77v639zM539 874q-135 0 -213 -100t-78 -248v-90q0 -149 77.5 -248.5
t213.5 -99.5q131 0 228 104t97 259v61q0 154 -97.5 258t-227.5 104z" />
    <glyph glyph-name="Dcroat" unicode="&#x110;" horiz-adv-x="1466" 
d="M1321 610q0 -276 -156.5 -443t-445.5 -167h-488v639h-174v100h174v625h488q147 0 262.5 -45.5t189.5 -127.5t112 -194t38 -247v-140zM375 121h336q230 0 348.5 130.5t118.5 352.5v154q0 223 -119 354t-348 131h-336v-504h448v-100h-448v-518z" />
    <glyph glyph-name="dcroat" unicode="&#x111;" horiz-adv-x="1175" 
d="M874 213q-62 -111 -147 -173.5t-219 -62.5q-182 0 -288.5 129t-106.5 324v100q0 195 109 324t290 129q67 0 123.5 -17t98.5 -48.5t71 -64.5t57 -77v371h-330v84h330v186h135v-186h150v-84h-150v-1147h-110zM539 872q-135 0 -213 -100t-78 -248v-88q0 -149 77.5 -248.5
t213.5 -99.5q131 0 228 104t97 259v59q0 154 -97.5 258t-227.5 104z" />
    <glyph glyph-name="Emacron" unicode="&#x112;" horiz-adv-x="1271" 
d="M358 1729h656v-103h-656v103zM213 1364h944v-121h-803v-493h639v-119h-639v-510h805v-121h-946v1364z" />
    <glyph glyph-name="emacron" unicode="&#x113;" horiz-adv-x="1069" 
d="M225 1325h643v-102h-643v102zM958 289q0 -141 -108.5 -229.5t-288.5 -88.5q-114 0 -201.5 35t-141 98.5t-80.5 146.5t-27 183v80q0 206 116.5 341.5t317.5 135.5q105 0 185.5 -36t130.5 -100.5t75 -148.5t25 -184v-69h-719v-29q0 -73 17.5 -132.5t54 -106.5t100 -73
t149.5 -26q125 0 199 58t74 149v6h122v-10zM543 879q-137 0 -216 -92t-85 -240h589q-3 151 -74 241.5t-214 90.5z" />
    <glyph glyph-name="Ebreve" unicode="&#x114;" horiz-adv-x="1271" 
d="M686 1669q225 0 225 137q0 46 -16 111h72q28 -70 28 -141q0 -103 -85.5 -158t-223.5 -55q-139 0 -225 54.5t-86 158.5q0 71 28 141h72q-14 -57 -14 -111q0 -137 225 -137zM213 1364h944v-121h-803v-493h639v-119h-639v-510h805v-121h-946v1364z" />
    <glyph glyph-name="ebreve" unicode="&#x115;" horiz-adv-x="1069" 
d="M547 1268q107 0 155 38.5t48 120.5q0 56 -13 117h76q25 -84 25 -151q0 -119 -80 -177.5t-211 -58.5q-130 0 -210.5 58.5t-80.5 177.5q0 67 25 151h75q-12 -74 -12 -117q0 -82 48 -120.5t155 -38.5zM958 289q0 -141 -108.5 -229.5t-288.5 -88.5q-114 0 -201.5 35
t-141 98.5t-80.5 146.5t-27 183v80q0 206 116.5 341.5t317.5 135.5q105 0 185.5 -36t130.5 -100.5t75 -148.5t25 -184v-69h-719v-29q0 -73 17.5 -132.5t54 -106.5t100 -73t149.5 -26q125 0 199 58t74 149v6h122v-10zM543 879q-137 0 -216 -92t-85 -240h589q-3 151 -74 241.5
t-214 90.5z" />
    <glyph glyph-name="Edotaccent" unicode="&#x116;" horiz-adv-x="1271" 
d="M604 1757h162v-162h-162v162zM213 1364h944v-121h-803v-493h639v-119h-639v-510h805v-121h-946v1364z" />
    <glyph glyph-name="edotaccent" unicode="&#x117;" horiz-adv-x="1069" 
d="M467 1354h162v-162h-162v162zM958 289q0 -141 -108.5 -229.5t-288.5 -88.5q-114 0 -201.5 35t-141 98.5t-80.5 146.5t-27 183v80q0 206 116.5 341.5t317.5 135.5q105 0 185.5 -36t130.5 -100.5t75 -148.5t25 -184v-69h-719v-29q0 -73 17.5 -132.5t54 -106.5t100 -73
t149.5 -26q125 0 199 58t74 149v6h122v-10zM543 879q-137 0 -216 -92t-85 -240h589q-3 151 -74 241.5t-214 90.5z" />
    <glyph glyph-name="Eogonek" unicode="&#x118;" horiz-adv-x="1271" 
d="M1247 -481q-81 -58 -188 -58q-102 0 -160.5 51.5t-58.5 135.5q0 54 30 116q46 91 201 236h-858v1364h944v-121h-803v-493h639v-119h-639v-510h805v-121q-143 -153 -178 -221q-29 -63 -29 -111q0 -59 33.5 -89t91.5 -30q66 0 133 37z" />
    <glyph glyph-name="eogonek" unicode="&#x119;" horiz-adv-x="1069" 
d="M989 -481q-78 -58 -186 -58q-102 0 -160.5 53t-58.5 142q0 64 30 135q35 71 140 215q-87 -35 -193 -35q-114 0 -201.5 35t-141 98.5t-80.5 146.5t-27 183v80q0 206 116.5 341.5t317.5 135.5q105 0 185.5 -36t130.5 -100.5t75 -148.5t25 -184v-69h-719v-29
q0 -73 17.5 -132.5t54 -106.5t100 -73t149.5 -26q125 0 199 58.5t74 148.5v6h122v-8q0 -86 -43 -158q-135 -207 -170 -280q-51 -99 -51 -175q0 -65 34.5 -97t92.5 -32q69 0 133 37zM543 879q-137 0 -216 -92t-85 -240h589q-3 151 -74 241.5t-214 90.5z" />
    <glyph glyph-name="Ecaron" unicode="&#x11a;" horiz-adv-x="1271" 
d="M344 1942q121 -25 208 -91t134 -151q45 85 132.5 151t209.5 91v-76q-204 -65 -270 -277h-146q-66 212 -268 277v76zM213 1364h944v-121h-803v-493h639v-119h-639v-510h805v-121h-946v1364z" />
    <glyph glyph-name="ecaron" unicode="&#x11b;" horiz-adv-x="1069" 
d="M225 1583q113 -29 199 -106.5t123 -180.5q37 102 123.5 180t197.5 107v-76q-192 -78 -254 -327h-135q-59 248 -254 327v76zM958 289q0 -141 -108.5 -229.5t-288.5 -88.5q-114 0 -201.5 35t-141 98.5t-80.5 146.5t-27 183v80q0 206 116.5 341.5t317.5 135.5
q105 0 185.5 -36t130.5 -100.5t75 -148.5t25 -184v-69h-719v-29q0 -73 17.5 -132.5t54 -106.5t100 -73t149.5 -26q125 0 199 58t74 149v6h122v-10zM543 879q-137 0 -216 -92t-85 -240h589q-3 151 -74 241.5t-214 90.5z" />
    <glyph glyph-name="Gbreve" unicode="&#x11e;" horiz-adv-x="1456" 
d="M731 1679q225 0 225 138q0 45 -16 110h72q28 -70 28 -141q0 -103 -85.5 -158t-223.5 -55q-139 0 -225 54.5t-86 158.5q0 68 29 141h71q-16 -65 -16 -110q0 -138 227 -138zM745 1395q107 0 195.5 -25.5t149.5 -68.5t103 -101t61.5 -121.5t19.5 -130.5v-28h-141v20
q0 63 -23 121t-68.5 107t-122.5 78.5t-176 29.5q-212 0 -331 -137.5t-119 -356.5l-2 -196q0 -228 118.5 -363t319.5 -135q190 0 301 110.5t111 280.5v82h-396v117h535v-678h-84l-25 233q-136 -262 -462 -262q-257 0 -409.5 169.5t-152.5 455.5v172q0 180 69.5 321
t206.5 223.5t322 82.5z" />
    <glyph glyph-name="gbreve" unicode="&#x11f;" horiz-adv-x="1077" 
d="M532 1280q107 0 156 39t49 121q0 42 -12 116h76q22 -90 22 -151q0 -119 -80 -177.5t-211 -58.5q-129 0 -208.5 58.5t-79.5 177.5q0 74 22 151h76q-12 -74 -12 -116q0 -83 48 -121.5t154 -38.5zM1028 -88q0 -115 -125.5 -180.5t-355.5 -65.5q-234 0 -354.5 57t-120.5 164
q0 141 233 187v4q-82 22 -126 55.5t-44 85.5q0 89 164 143q-73 44 -112.5 112.5t-39.5 148.5v45q0 136 109 225.5t283 89.5q77 0 145 -22q76 6 123 19t70 36t30 48.5t6 65.5h107q10 -42 10 -63q0 -76 -56.5 -114t-174.5 -50q131 -88 131 -239v-43q0 -134 -106.5 -225
t-286.5 -91q-78 0 -152 23q-129 -32 -129 -88q0 -44 93 -68.5t206 -24.5h14q459 0 459 -235zM537 410q123 0 192.5 59t69.5 152v49q0 92 -69.5 150.5t-192.5 58.5q-121 0 -191 -58.5t-70 -150.5v-49q0 -93 69.5 -152t191.5 -59zM549 -238q174 0 264 37.5t90 104.5t-86.5 99
t-271.5 32h-27q-159 0 -241 -38t-82 -99q0 -63 88.5 -99.5t265.5 -36.5z" />
    <glyph glyph-name="Gdotaccent" unicode="&#x120;" horiz-adv-x="1456" 
d="M649 1767h162v-161h-162v161zM745 1395q107 0 195.5 -25.5t149.5 -68.5t103 -101t61.5 -121.5t19.5 -130.5v-28h-141v20q0 63 -23 121t-68.5 107t-122.5 78.5t-176 29.5q-212 0 -331 -137.5t-119 -356.5l-2 -196q0 -228 118.5 -363t319.5 -135q190 0 301 110.5t111 280.5
v82h-396v117h535v-678h-84l-25 233q-136 -262 -462 -262q-257 0 -409.5 169.5t-152.5 455.5v172q0 180 69.5 321t206.5 223.5t322 82.5z" />
    <glyph glyph-name="gdotaccent" unicode="&#x121;" horiz-adv-x="1077" 
d="M453 1364h161v-162h-161v162zM1028 -88q0 -115 -125.5 -180.5t-355.5 -65.5q-234 0 -354.5 57t-120.5 164q0 141 233 187v4q-82 22 -126 55.5t-44 85.5q0 89 164 143q-73 44 -112.5 112.5t-39.5 148.5v45q0 136 109 225.5t283 89.5q77 0 145 -22q76 6 123 19t70 36
t30 48.5t6 65.5h107q10 -42 10 -63q0 -76 -56.5 -114t-174.5 -50q131 -88 131 -239v-43q0 -134 -106.5 -225t-286.5 -91q-78 0 -152 23q-129 -32 -129 -88q0 -44 93 -68.5t206 -24.5h14q459 0 459 -235zM537 410q123 0 192.5 59t69.5 152v49q0 92 -69.5 150.5t-192.5 58.5
q-121 0 -191 -58.5t-70 -150.5v-49q0 -93 69.5 -152t191.5 -59zM549 -238q174 0 264 37.5t90 104.5t-86.5 99t-271.5 32h-27q-159 0 -241 -38t-82 -99q0 -63 88.5 -99.5t265.5 -36.5z" />
    <glyph glyph-name="Gcommaaccent" unicode="&#x122;" horiz-adv-x="1456" 
d="M745 1395q107 0 195.5 -25.5t149.5 -68.5t103 -101t61.5 -121.5t19.5 -130.5v-28h-141v20q0 63 -23 121t-68.5 107t-122.5 78.5t-176 29.5q-212 0 -331 -137.5t-119 -356.5l-2 -196q0 -228 118.5 -363t319.5 -135q190 0 301 110.5t111 280.5v82h-396v117h535v-678h-84
l-25 233q-136 -262 -462 -262q-257 0 -409.5 169.5t-152.5 455.5v172q0 180 69.5 321t206.5 223.5t322 82.5zM643 -231h176v-158q0 -223 -254 -281v52q176 47 176 204h-98v183z" />
    <glyph glyph-name="gcommaaccent" unicode="&#x123;" horiz-adv-x="1077" 
d="M449 1202v160q0 112 62.5 180.5t190.5 97.5v-49q-176 -50 -176 -207h101v-182h-178zM1028 -88q0 -115 -125.5 -180.5t-355.5 -65.5q-234 0 -354.5 57t-120.5 164q0 141 233 187v4q-82 22 -126 55.5t-44 85.5q0 89 164 143q-73 44 -112.5 112.5t-39.5 148.5v45
q0 136 109 225.5t283 89.5q77 0 145 -22q76 6 123 19t70 36t30 48.5t6 65.5h107q10 -42 10 -63q0 -76 -56.5 -114t-174.5 -50q131 -88 131 -239v-43q0 -134 -106.5 -225t-286.5 -91q-78 0 -152 23q-129 -32 -129 -88q0 -44 93 -68.5t206 -24.5h14q459 0 459 -235zM537 410
q123 0 192.5 59t69.5 152v49q0 92 -69.5 150.5t-192.5 58.5q-121 0 -191 -58.5t-70 -150.5v-49q0 -93 69.5 -152t191.5 -59zM549 -238q174 0 264 37.5t90 104.5t-86.5 99t-271.5 32h-27q-159 0 -241 -38t-82 -99q0 -63 88.5 -99.5t265.5 -36.5z" />
    <glyph glyph-name="Hbar" unicode="&#x126;" horiz-adv-x="1531" 
d="M375 629v-629h-144v1016h-174v98h174v250h144v-252h782v252h143v-250h175v-98h-175v-1016h-143v629h-782zM375 752h782v266h-782v-266z" />
    <glyph glyph-name="hbar" unicode="&#x127;" horiz-adv-x="1163" 
d="M313 567v-567h-135v1147h-149v84h149v186h135v-186h330v-84h-330v-381q141 217 365 217q147 0 232 -89t85 -239v-655h-135v641q0 102 -58 163.5t-161 61.5q-133 0 -230.5 -95t-97.5 -204z" />
    <glyph glyph-name="Imacron" unicode="&#x12a;" horiz-adv-x="593" 
d="M-31 1729h656v-103h-656v103zM225 1364h144v-1364h-144v1364z" />
    <glyph glyph-name="imacron" unicode="&#x12b;" horiz-adv-x="503" 
d="M-70 1317h643v-103h-643v103zM184 963h135v-963h-135v963z" />
    <glyph glyph-name="Ibreve" unicode="&#x12c;" horiz-adv-x="593" 
d="M297 1669q225 0 225 137q0 46 -16 111h72q28 -70 28 -141q0 -103 -85.5 -158t-223.5 -55q-139 0 -225 54.5t-86 158.5q0 71 28 141h72q-16 -65 -16 -111q0 -137 227 -137zM225 1364h144v-1364h-144v1364z" />
    <glyph glyph-name="ibreve" unicode="&#x12d;" horiz-adv-x="503" 
d="M252 1262q107 0 156 37.5t49 119.5q0 39 -13 119h74q25 -88 25 -154q0 -118 -80 -176.5t-211 -58.5q-129 0 -210 59t-81 176q0 66 25 154h75q-12 -74 -12 -119q0 -82 48 -119.5t155 -37.5zM184 963h135v-963h-135v963z" />
    <glyph glyph-name="Iogonek" unicode="&#x12e;" horiz-adv-x="593" 
d="M477 -481q-78 -58 -186 -58q-101 0 -160 50.5t-59 136.5q0 67 34 125q23 47 119 157v1434h144v-1364q-122 -154 -152 -211q-33 -62 -33 -125q0 -57 33.5 -87t89.5 -30q70 0 135 39z" />
    <glyph glyph-name="iogonek" unicode="&#x12f;" horiz-adv-x="503" 
d="M172 1346h162v-162h-162v162zM434 -481q-78 -58 -186 -58q-103 0 -162 51.5t-59 135.5q0 61 32 127q39 73 125 172v1016h135v-963q-116 -144 -149 -209q-31 -70 -31 -123q0 -59 34.5 -89t92.5 -30q64 0 131 37z" />
    <glyph glyph-name="Idotaccent" unicode="&#x130;" horiz-adv-x="593" 
d="M215 1757h162v-162h-162v162zM225 1364h144v-1364h-144v1364z" />
    <glyph glyph-name="dotlessi" unicode="&#x131;" horiz-adv-x="503" 
d="M184 963h135v-963h-135v963z" />
    <glyph glyph-name="Kcommaaccent" unicode="&#x136;" horiz-adv-x="1325" 
d="M1098 0q-393 508 -516 664l-226 -246v-418h-143v1364h143v-776l725 776h179l-580 -604l590 -760h-172zM610 -209h176v-158q0 -114 -61.5 -182.5t-189.5 -97.5v51q176 47 176 205h-101v182z" />
    <glyph glyph-name="kcommaaccent" unicode="&#x137;" horiz-adv-x="1036" 
d="M178 1417h135v-1034l484 580h155l-334 -392l361 -571h-152l-299 473l-215 -250v-223h-135v1417zM457 -209h176v-158q0 -114 -62 -182.5t-190 -97.5v51q176 47 176 205h-100v182z" />
    <glyph glyph-name="Lacute" unicode="&#x139;" horiz-adv-x="1159" 
d="M659 1917l-323 -342h-100l249 342h174zM213 1364h143v-1241h734v-123h-877v1364z" />
    <glyph glyph-name="lacute" unicode="&#x13a;" horiz-adv-x="503" 
d="M635 1923l-336 -393h-94l256 393h174zM184 1417h135v-1417h-135v1417z" />
    <glyph glyph-name="Lcommaaccent" unicode="&#x13b;" horiz-adv-x="1159" 
d="M213 1364h143v-1241h734v-123h-877v1364zM547 -223h176v-158q0 -223 -254 -281v52q176 47 176 207h-98v180z" />
    <glyph glyph-name="lcommaaccent" unicode="&#x13c;" horiz-adv-x="503" 
d="M184 1417h135v-1417h-135v1417zM164 -223h176v-158q0 -223 -254 -281v52q176 47 176 207h-98v180z" />
    <glyph glyph-name="Lcaron" unicode="&#x13d;" horiz-adv-x="1159" 
d="M580 1364h131l-72 -371h-76zM213 1364h143v-1241h734v-123h-877v1364z" />
    <glyph glyph-name="lcaron" unicode="&#x13e;" horiz-adv-x="503" 
d="M510 1417h129l-70 -370h-77zM184 1417h135v-1417h-135v1417z" />
    <glyph glyph-name="Ldot" unicode="&#x13f;" horiz-adv-x="1159" 
d="M213 1364h143v-1241h734v-123h-877v1364zM791 776h151v-164h-151v164z" />
    <glyph glyph-name="ldot" unicode="&#x140;" horiz-adv-x="657" 
d="M184 1417h135v-1417h-135v1417zM506 770h151v-166h-151v166z" />
    <glyph glyph-name="Lslash" unicode="&#x141;" horiz-adv-x="1167" 
d="M1096 123v-123h-875v547l-164 -84l-45 84l209 108v709h144v-635l411 211l45 -84l-456 -235v-498h731z" />
    <glyph glyph-name="lslash" unicode="&#x142;" horiz-adv-x="546" 
d="M561 834l-219 -134v-700h-135v618l-172 -104l-45 74l217 131v698h135v-614l174 104z" />
    <glyph glyph-name="Nacute" unicode="&#x143;" horiz-adv-x="1507" 
d="M1081 1903l-323 -342h-101l250 342h174zM213 1364h137l805 -1120h4v1120h135v-1364h-131l-813 1130h-4v-1130h-133v1364z" />
    <glyph glyph-name="nacute" unicode="&#x144;" horiz-adv-x="1163" 
d="M918 1575l-336 -391h-97l256 391h177zM178 963h111l14 -209q73 113 163.5 172t213.5 59q146 0 230.5 -89t84.5 -239v-657h-135v643q0 102 -58 163.5t-161 61.5q-133 0 -230.5 -95t-97.5 -206v-567h-135v963z" />
    <glyph glyph-name="Ncommaaccent" unicode="&#x145;" horiz-adv-x="1507" 
d="M213 1364h137l805 -1120h4v1120h135v-1364h-131l-813 1130h-4v-1130h-133v1364zM664 -209h176v-158q0 -114 -62 -182.5t-190 -97.5v51q177 47 174 205h-98v182z" />
    <glyph glyph-name="ncommaaccent" unicode="&#x146;" horiz-adv-x="1163" 
d="M178 963h111l14 -209q73 113 163.5 172t213.5 59q146 0 230.5 -89t84.5 -239v-657h-135v643q0 102 -58 163.5t-161 61.5q-133 0 -230.5 -95t-97.5 -206v-567h-135v963zM489 -209h177v-158q0 -114 -62 -182.5t-190 -97.5v51q177 47 174 205h-99v182z" />
    <glyph glyph-name="Ncaron" unicode="&#x147;" horiz-adv-x="1507" 
d="M408 1927q122 -25 209.5 -90.5t132.5 -150.5q47 85 134 150.5t208 90.5v-74q-204 -68 -269 -278h-147q-62 210 -268 278v74zM213 1364h137l805 -1120h4v1120h135v-1364h-131l-813 1130h-4v-1130h-133v1364z" />
    <glyph glyph-name="ncaron" unicode="&#x148;" horiz-adv-x="1163" 
d="M256 1595q112 -27 198.5 -104.5t123.5 -179.5q37 101 123.5 179t197.5 105v-75q-191 -75 -254 -328h-135q-59 252 -254 328v75zM178 963h111l14 -209q73 113 163.5 172t213.5 59q146 0 230.5 -89t84.5 -239v-657h-135v643q0 102 -58 163.5t-161 61.5q-133 0 -230.5 -95
t-97.5 -206v-567h-135v963z" />
    <glyph glyph-name="Omacron" unicode="&#x14c;" horiz-adv-x="1495" 
d="M420 1739h655v-101h-655v101zM748 1395q279 0 439.5 -171t160.5 -462v-160q0 -291 -160.5 -462t-439.5 -171q-280 0 -440.5 171t-160.5 462v160q0 290 161.5 461.5t439.5 171.5zM748 1274q-209 0 -332 -136t-123 -362v-188q0 -226 123 -362t332 -136t332.5 136t123.5 362
v188q0 226 -122.5 362t-333.5 136z" />
    <glyph glyph-name="omacron" unicode="&#x14d;" horiz-adv-x="1112" 
d="M233 1325h646v-102h-646v102zM557 991q205 0 326 -130.5t121 -334.5v-92q0 -201 -124.5 -332t-324.5 -131q-202 0 -324 130t-122 331v92q0 204 120.5 335.5t327.5 131.5zM555 879q-145 0 -228 -97t-83 -247v-111q0 -148 86 -244t225 -96q140 0 226.5 96t86.5 244v111
q0 149 -84.5 246.5t-228.5 97.5z" />
    <glyph glyph-name="Obreve" unicode="&#x14e;" horiz-adv-x="1495" 
d="M748 1681q225 0 225 136q0 37 -15 110h70q31 -77 31 -141q0 -103 -86.5 -158t-224.5 -55t-225 55t-87 158q0 59 29 141h72q-15 -73 -15 -110q0 -136 226 -136zM748 1395q279 0 439.5 -171t160.5 -462v-160q0 -291 -160.5 -462t-439.5 -171q-280 0 -440.5 171t-160.5 462
v160q0 290 161.5 461.5t439.5 171.5zM748 1274q-209 0 -332 -136t-123 -362v-188q0 -226 123 -362t332 -136t332.5 136t123.5 362v188q0 226 -122.5 362t-333.5 136z" />
    <glyph glyph-name="obreve" unicode="&#x14f;" horiz-adv-x="1112" 
d="M557 1270q107 0 155 37.5t48 119.5q0 45 -12 119h75q23 -80 23 -153q0 -117 -80 -176.5t-209 -59.5q-130 0 -210.5 59t-80.5 177q0 65 25 153h74q-13 -80 -13 -119q0 -82 49 -119.5t156 -37.5zM557 991q205 0 326 -130.5t121 -334.5v-92q0 -201 -124.5 -332t-324.5 -131
q-202 0 -324 130t-122 331v92q0 204 120.5 335.5t327.5 131.5zM555 879q-145 0 -228 -97t-83 -247v-111q0 -148 86 -244t225 -96q140 0 226.5 96t86.5 244v111q0 149 -84.5 246.5t-228.5 97.5z" />
    <glyph glyph-name="Ohungarumlaut" unicode="&#x150;" horiz-adv-x="1495" 
d="M899 1927l-299 -342h-86l227 342h158zM1243 1927l-301 -342h-84l225 342h160zM748 1395q279 0 439.5 -171t160.5 -462v-160q0 -291 -160.5 -462t-439.5 -171q-280 0 -440.5 171t-160.5 462v160q0 290 161.5 461.5t439.5 171.5zM748 1274q-209 0 -332 -136t-123 -362v-188
q0 -226 123 -362t332 -136t332.5 136t123.5 362v188q0 226 -122.5 362t-333.5 136z" />
    <glyph glyph-name="ohungarumlaut" unicode="&#x151;" horiz-adv-x="1112" 
d="M737 1563l-307 -394h-84l234 394h157zM1075 1563l-307 -394h-84l234 394h157zM557 991q205 0 326 -130.5t121 -334.5v-92q0 -201 -124.5 -332t-324.5 -131q-202 0 -324 130t-122 331v92q0 204 120.5 335.5t327.5 131.5zM555 879q-145 0 -228 -97t-83 -247v-111
q0 -148 86 -244t225 -96q140 0 226.5 96t86.5 244v111q0 149 -84.5 246.5t-228.5 97.5z" />
    <glyph glyph-name="OE" unicode="&#x152;" horiz-adv-x="2150" 
d="M2040 0h-1292q-147 0 -262.5 45.5t-189.5 127.5t-112.5 194t-38.5 247v140q0 276 157.5 443t447.5 167h1288v-121h-803v-493h637v-119h-637v-510h805v-121zM756 1243q-230 0 -348.5 -130.5t-118.5 -352.5v-154q0 -223 119 -354t350 -131h334v1122h-336z" />
    <glyph glyph-name="oe" unicode="&#x153;" horiz-adv-x="1824" 
d="M1317 -29q-146 0 -243.5 57t-145.5 158q-55 -101 -152 -158t-223 -57q-200 0 -322 130t-122 331v92q0 203 120.5 335t325.5 132q132 0 229.5 -59.5t149.5 -163.5q52 104 147.5 163.5t221.5 59.5q104 0 184.5 -36t130.5 -100.5t75 -148.5t25 -184v-69h-721v-29
q0 -152 78.5 -245t245.5 -93q123 0 196.5 60t73.5 151v6h125v-10q0 -141 -110 -231.5t-289 -90.5zM1300 879q-137 0 -216.5 -92.5t-84.5 -239.5h590q-5 151 -75.5 241.5t-213.5 90.5zM553 877q-143 0 -226 -97t-83 -245v-111q0 -147 85.5 -242.5t223.5 -95.5q139 0 225 95.5
t86 242.5v111q0 147 -83.5 244.5t-227.5 97.5z" />
    <glyph glyph-name="Racute" unicode="&#x154;" horiz-adv-x="1353" 
d="M1010 1917l-324 -342h-100l250 342h174zM356 580v-580h-143v1364h569q218 0 325 -93t107 -263v-66q0 -137 -90 -232.5t-252 -121.5l394 -588h-164l-383 580h-363zM356 1245v-549h392q152 0 237.5 67.5t85.5 182.5v55q0 123 -74 183.5t-229 60.5h-412z" />
    <glyph glyph-name="racute" unicode="&#x155;" horiz-adv-x="774" 
d="M778 1554l-336 -391h-96l256 391h176zM178 963h111l14 -252q49 117 135.5 191.5t216.5 74.5q31 0 74 -6v-131q-41 6 -78 6q-136 0 -237 -99t-101 -225v-522h-135v963z" />
    <glyph glyph-name="Rcommaaccent" unicode="&#x156;" horiz-adv-x="1353" 
d="M356 580v-580h-143v1364h569q218 0 325 -93t107 -263v-66q0 -137 -90 -232.5t-252 -121.5l394 -588h-164l-383 580h-363zM356 1245v-549h392q152 0 237.5 67.5t85.5 182.5v55q0 123 -74 183.5t-229 60.5h-412zM623 -209h176v-158q0 -113 -63 -182t-191 -98v51
q176 47 176 205h-98v182z" />
    <glyph glyph-name="rcommaaccent" unicode="&#x157;" horiz-adv-x="774" 
d="M178 963h111l14 -252q49 117 135.5 191.5t216.5 74.5q31 0 74 -6v-131q-41 6 -78 6q-136 0 -237 -99t-101 -225v-522h-135v963zM158 -223h176v-158q0 -114 -62 -183t-190 -98v52q177 47 174 207h-98v180z" />
    <glyph glyph-name="Rcaron" unicode="&#x158;" horiz-adv-x="1353" 
d="M336 1942q122 -25 209.5 -91t132.5 -151q47 85 134 151t208 91v-76q-202 -65 -268 -277h-148q-63 212 -268 277v76zM356 580v-580h-143v1364h569q218 0 325 -93t107 -263v-66q0 -137 -90 -232.5t-252 -121.5l394 -588h-164l-383 580h-363zM356 1245v-549h392
q152 0 237.5 67.5t85.5 182.5v55q0 123 -74 183.5t-229 60.5h-412z" />
    <glyph glyph-name="rcaron" unicode="&#x159;" horiz-adv-x="774" 
d="M117 1575q112 -27 197.5 -105t123.5 -180q37 101 124 179.5t198 105.5v-76q-195 -76 -254 -328h-135q-59 252 -254 328v76zM178 963h111l14 -252q49 117 135.5 191.5t216.5 74.5q31 0 74 -6v-131q-41 6 -78 6q-136 0 -237 -99t-101 -225v-522h-135v963z" />
    <glyph glyph-name="Sacute" unicode="&#x15a;" horiz-adv-x="1304" 
d="M997 1923l-325 -342h-99l250 342h174zM662 1391q131 0 230.5 -32.5t157.5 -89t86.5 -127t28.5 -153.5v-45h-145v39q0 59 -19 109t-59.5 91.5t-113 65t-171.5 23.5q-158 0 -253 -70.5t-95 -183.5q0 -39 8.5 -69t30 -54.5t48 -42.5t74.5 -36t97.5 -32.5t126.5 -33.5
q133 -31 217.5 -61.5t148.5 -75.5t92 -106.5t28 -148.5q0 -179 -138 -282t-364 -103q-269 0 -404 113.5t-135 300.5v53h146v-43q0 -142 97.5 -223.5t299.5 -81.5q160 0 256 67t96 189q0 121 -81.5 175.5t-313.5 109.5q-128 29 -209 57.5t-145 71.5t-92.5 103t-28.5 145
q0 168 136.5 274.5t361.5 106.5z" />
    <glyph glyph-name="sacute" unicode="&#x15b;" horiz-adv-x="1024" 
d="M848 1561l-336 -394h-96l256 394h176zM524 -27q-204 0 -307.5 91t-103.5 233v31h123v-25q0 -100 74 -160.5t216 -60.5q118 0 186 46t68 130q0 74 -59 112.5t-223 65.5q-192 32 -277.5 94t-85.5 181q0 117 102.5 197.5t272.5 80.5q185 0 282 -85t97 -218v-22h-121v16
q0 93 -67.5 148t-194.5 55q-106 0 -175 -47t-69 -119t63 -110t222 -66q195 -31 277.5 -92.5t82.5 -184.5q0 -129 -103.5 -210t-279.5 -81z" />
    <glyph glyph-name="Scedilla" unicode="&#x15e;" horiz-adv-x="1304" 
d="M903 -342q0 -94 -68 -145.5t-190 -51.5q-129 0 -258 54l31 69q109 -45 215 -45q162 0 162 119q0 49 -34.5 77.5t-101.5 28.5q-57 0 -129 -28l-36 55l139 182q-247 10 -370.5 123t-123.5 291v53h146v-43q0 -142 97.5 -223.5t299.5 -81.5q160 0 256 67t96 189
q0 121 -81.5 175.5t-313.5 109.5q-128 29 -209 57.5t-145 71.5t-92.5 103t-28.5 145q0 168 136.5 274.5t361.5 106.5q131 0 230.5 -32.5t157.5 -89t86.5 -127t28.5 -153.5v-45h-145v39q0 59 -19 109t-59.5 91.5t-113 65t-171.5 23.5q-158 0 -253 -70.5t-95 -183.5
q0 -39 8.5 -69t30 -54.5t48 -42.5t74.5 -36t97.5 -32.5t126.5 -33.5q133 -31 217.5 -61.5t148.5 -75.5t92 -106.5t28 -148.5q0 -170 -125.5 -272t-333.5 -113l-123 -151q56 18 102 18q92 0 147.5 -49.5t55.5 -132.5z" />
    <glyph glyph-name="scedilla" unicode="&#x15f;" horiz-adv-x="1024" 
d="M745 -342q0 -94 -68 -145.5t-190 -51.5q-129 0 -258 54l31 69q109 -45 217 -45q160 0 160 119q0 49 -34 77.5t-101 28.5q-55 0 -127 -28l-39 55l139 184q-179 10 -270.5 99t-91.5 223v31h123v-25q0 -100 74 -160.5t216 -60.5q118 0 186 46t68 130q0 74 -59 112.5
t-223 65.5q-192 32 -277.5 94t-85.5 181q0 117 102.5 197.5t272.5 80.5q185 0 282 -85t97 -218v-22h-121v16q0 93 -67.5 148t-194.5 55q-106 0 -175 -47t-69 -119t63 -110t222 -66q195 -31 277.5 -92.5t82.5 -184.5q0 -122 -92.5 -201t-251.5 -88l-123 -153q56 18 105 18
q92 0 146 -49.5t54 -132.5z" />
    <glyph glyph-name="Scaron" unicode="&#x160;" horiz-adv-x="1304" 
d="M324 1948q121 -25 208 -91t134 -151q47 85 134 151t208 91v-74q-207 -68 -269 -279h-147q-62 211 -268 279v74zM662 1391q131 0 230.5 -32.5t157.5 -89t86.5 -127t28.5 -153.5v-45h-145v39q0 59 -19 109t-59.5 91.5t-113 65t-171.5 23.5q-158 0 -253 -70.5t-95 -183.5
q0 -39 8.5 -69t30 -54.5t48 -42.5t74.5 -36t97.5 -32.5t126.5 -33.5q133 -31 217.5 -61.5t148.5 -75.5t92 -106.5t28 -148.5q0 -179 -138 -282t-364 -103q-269 0 -404 113.5t-135 300.5v53h146v-43q0 -142 97.5 -223.5t299.5 -81.5q160 0 256 67t96 189q0 121 -81.5 175.5
t-313.5 109.5q-128 29 -209 57.5t-145 71.5t-92.5 103t-28.5 145q0 168 136.5 274.5t361.5 106.5z" />
    <glyph glyph-name="scaron" unicode="&#x161;" horiz-adv-x="1024" 
d="M188 1581q111 -27 197.5 -105.5t122.5 -179.5q37 102 123.5 180t197.5 105v-76q-191 -76 -254 -327h-133q-63 251 -254 327v76zM524 -27q-204 0 -307.5 91t-103.5 233v31h123v-25q0 -100 74 -160.5t216 -60.5q118 0 186 46t68 130q0 74 -59 112.5t-223 65.5
q-192 32 -277.5 94t-85.5 181q0 117 102.5 197.5t272.5 80.5q185 0 282 -85t97 -218v-22h-121v16q0 93 -67.5 148t-194.5 55q-106 0 -175 -47t-69 -119t63 -110t222 -66q195 -31 277.5 -92.5t82.5 -184.5q0 -129 -103.5 -210t-279.5 -81z" />
    <glyph glyph-name="Tcommaaccent" unicode="&#x162;" horiz-adv-x="1273" 
d="M74 1364h1126v-123h-491v-1241h-144v1241h-491v123zM551 -223h176v-158q0 -223 -254 -281v52q176 47 176 207h-98v180z" />
    <glyph glyph-name="Tcommaaccent" unicode="&#x21a;" horiz-adv-x="1273" 
d="M74 1364h1126v-123h-491v-1241h-144v1241h-491v123zM551 -223h176v-158q0 -223 -254 -281v52q176 47 176 207h-98v180z" />
    <glyph glyph-name="tcommaaccent" unicode="&#x163;" horiz-adv-x="782" 
d="M76 963h176v217l135 39v-256h324v-109h-324v-537q0 -120 44.5 -164t158.5 -44h69v-111h-92q-163 0 -239 67.5t-76 227.5v561h-176v109zM352 -225h176v-158q0 -223 -254 -281v52q177 50 177 206h-99v181z" />
    <glyph glyph-name="tcommaaccent" unicode="&#x21b;" horiz-adv-x="782" 
d="M76 963h176v217l135 39v-256h324v-109h-324v-537q0 -120 44.5 -164t158.5 -44h69v-111h-92q-163 0 -239 67.5t-76 227.5v561h-176v109zM352 -225h176v-158q0 -223 -254 -281v52q177 50 177 206h-99v181z" />
    <glyph glyph-name="Tcaron" unicode="&#x164;" horiz-adv-x="1273" 
d="M297 1942q121 -25 208 -91t134 -151q45 85 132.5 151t209.5 91v-76q-205 -65 -268 -277h-148q-66 212 -268 277v76zM74 1364h1126v-123h-491v-1241h-144v1241h-491v123z" />
    <glyph glyph-name="tcaron" unicode="&#x165;" horiz-adv-x="782" 
d="M586 1483h129l-70 -371h-76zM76 963h176v217l135 39v-256h324v-109h-324v-537q0 -120 44.5 -164t158.5 -44h69v-111h-92q-163 0 -239 67.5t-76 227.5v561h-176v109z" />
    <glyph glyph-name="Umacron" unicode="&#x16a;" horiz-adv-x="1445" 
d="M395 1716h656v-102h-656v102zM193 1364h143v-872q0 -191 102.5 -293.5t286.5 -102.5q183 0 285 103t102 293v872h141v-872q0 -248 -140.5 -383.5t-391.5 -135.5q-250 0 -389 135.5t-139 383.5v872z" />
    <glyph glyph-name="umacron" unicode="&#x16b;" horiz-adv-x="1163" 
d="M256 1303h643v-103h-643v103zM168 963h135v-641q0 -103 58 -165.5t161 -62.5q89 0 166 46.5t119.5 115.5t42.5 139v568h137v-963h-113l-14 211q-72 -114 -162 -174t-213 -60q-147 0 -232 89.5t-85 240.5v656z" />
    <glyph glyph-name="Ubreve" unicode="&#x16c;" horiz-adv-x="1445" 
d="M723 1657q225 0 225 137q0 40 -14 109h70q30 -75 30 -142q0 -103 -86.5 -158t-224.5 -55t-224.5 55t-86.5 158q0 63 28 142h72q-14 -69 -14 -109q0 -137 225 -137zM193 1364h143v-872q0 -191 102.5 -293.5t286.5 -102.5q183 0 285 103t102 293v872h141v-872
q0 -248 -140.5 -383.5t-391.5 -135.5q-250 0 -389 135.5t-139 383.5v872z" />
    <glyph glyph-name="ubreve" unicode="&#x16d;" horiz-adv-x="1163" 
d="M578 1247q107 0 154.5 38t47.5 120q0 45 -12 119h76q24 -84 24 -154q0 -117 -80.5 -176t-209.5 -59q-131 0 -211 58.5t-80 176.5q0 70 24 154h74q-10 -61 -10 -119q0 -82 48 -120t155 -38zM168 963h135v-641q0 -103 58 -165.5t161 -62.5q89 0 166 46.5t119.5 115.5
t42.5 139v568h137v-963h-113l-14 211q-72 -114 -162 -174t-213 -60q-147 0 -232 89.5t-85 240.5v656z" />
    <glyph glyph-name="Uring" unicode="&#x16e;" horiz-adv-x="1445" 
d="M723 1956q105 0 169 -61t64 -148q0 -89 -63.5 -150t-169.5 -61q-105 0 -169.5 61t-64.5 150q0 86 65 147.5t169 61.5zM723 1878q-67 0 -108.5 -37.5t-41.5 -93.5q0 -58 41 -96.5t109 -38.5t108.5 38.5t40.5 96.5q0 56 -41 93.5t-108 37.5zM193 1364h143v-872
q0 -191 102.5 -293.5t286.5 -102.5q183 0 285 103t102 293v872h141v-872q0 -248 -140.5 -383.5t-391.5 -135.5q-250 0 -389 135.5t-139 383.5v872z" />
    <glyph glyph-name="uring" unicode="&#x16f;" horiz-adv-x="1163" 
d="M578 1542q102 0 165.5 -61t63.5 -148q0 -89 -63.5 -150t-165.5 -61q-103 0 -167.5 61t-64.5 150q0 87 64.5 148t167.5 61zM578 1466q-64 0 -105 -39t-41 -94q0 -57 40.5 -95t105.5 -38t105 38t40 95q0 56 -40.5 94.5t-104.5 38.5zM168 963h135v-641q0 -103 58 -165.5
t161 -62.5q89 0 166 46.5t119.5 115.5t42.5 139v568h137v-963h-113l-14 211q-72 -114 -162 -174t-213 -60q-147 0 -232 89.5t-85 240.5v656z" />
    <glyph glyph-name="Uhungarumlaut" unicode="&#x170;" horiz-adv-x="1445" 
d="M874 1903l-299 -342h-86l228 342h157zM1219 1903l-301 -342h-84l225 342h160zM193 1364h143v-872q0 -191 102.5 -293.5t286.5 -102.5q183 0 285 103t102 293v872h141v-872q0 -248 -140.5 -383.5t-391.5 -135.5q-250 0 -389 135.5t-139 383.5v872z" />
    <glyph glyph-name="uhungarumlaut" unicode="&#x171;" horiz-adv-x="1163" 
d="M758 1540l-307 -393h-84l233 393h158zM1096 1540l-305 -393h-86l233 393h158zM168 963h135v-641q0 -103 58 -165.5t161 -62.5q89 0 166 46.5t119.5 115.5t42.5 139v568h137v-963h-113l-14 211q-72 -114 -162 -174t-213 -60q-147 0 -232 89.5t-85 240.5v656z" />
    <glyph glyph-name="Uogonek" unicode="&#x172;" horiz-adv-x="1445" 
d="M963 -481q-78 -58 -187 -58q-103 0 -161 51t-58 136q0 69 31 127q35 67 149 198h-16q-250 0 -389 135.5t-139 383.5v872h143v-872q0 -191 102.5 -293.5t286.5 -102.5q183 0 285 103t102 293v872h141v-872q0 -219 -111.5 -351.5t-314.5 -160.5q-84 -107 -125 -185
q-34 -67 -34 -127q0 -59 34.5 -89t92.5 -30q64 0 131 37z" />
    <glyph glyph-name="uogonek" unicode="&#x173;" horiz-adv-x="1163" 
d="M1100 -481q-78 -58 -187 -58q-102 0 -160.5 51.5t-58.5 135.5q0 63 31 127q20 40 51 81t103 121l-19 234q-72 -114 -162 -174t-213 -60q-147 0 -232 89.5t-85 240.5v656h135v-641q0 -103 58 -165.5t161 -62.5q89 0 166 46.5t119.5 115.5t42.5 139v568h137v-963
q-116 -144 -149 -209t-33 -123q0 -59 34.5 -89t92.5 -30q66 0 133 37z" />
    <glyph glyph-name="Wcircumflex" unicode="&#x174;" horiz-adv-x="2082" 
d="M971 1917h145q66 -211 270 -279v-73q-122 25 -209.5 90.5t-132.5 150.5q-46 -85 -134 -150.5t-208 -90.5v73q203 68 269 279zM106 1364h150l344 -1176h4l371 1180h133l377 -1180h4l342 1176h145l-426 -1380h-137l-373 1165h-4l-372 -1165h-140z" />
    <glyph glyph-name="wcircumflex" unicode="&#x175;" horiz-adv-x="1581" 
d="M731 1550h133q62 -248 254 -327v-76q-111 29 -197.5 106.5t-123.5 178.5q-36 -101 -122 -178.5t-198 -106.5v76q192 79 254 327zM68 963h139l254 -805h4l260 805h133l264 -805h4l254 805h136l-330 -971h-121l-274 805h-5l-270 -805h-121z" />
    <glyph glyph-name="Ycircumflex" unicode="&#x176;" horiz-adv-x="1327" 
d="M594 1898h145q65 -210 269 -278v-74q-120 25 -207.5 91t-134.5 151q-45 -85 -132.5 -151t-209.5 -91v74q204 68 270 278zM66 1364h163l441 -700l432 700h158l-523 -829v-535h-145v537z" />
    <glyph glyph-name="ycircumflex" unicode="&#x177;" horiz-adv-x="1046" 
d="M467 1536h135q59 -249 254 -328v-75q-111 29 -197.5 106t-123.5 178q-37 -101 -123.5 -178t-198.5 -106v75q195 79 254 328zM68 963h143l326 -822l315 822h141l-391 -965q-75 -177 -154.5 -247t-222.5 -70h-63v114h43q97 0 148 36t87 118l21 49z" />
    <glyph glyph-name="Ydieresis" unicode="&#x178;" horiz-adv-x="1327" 
d="M399 1749h154v-166h-154v166zM780 1749h154v-166h-154v166zM66 1364h163l441 -700l432 700h158l-523 -829v-535h-145v537z" />
    <glyph glyph-name="Zacute" unicode="&#x179;" horiz-adv-x="1273" 
d="M977 1917l-324 -342h-100l250 342h174zM139 1364h1035v-82l-877 -1159h862v-123h-1057v82l881 1161h-844v121z" />
    <glyph glyph-name="zacute" unicode="&#x17a;" horiz-adv-x="1005" 
d="M854 1554l-336 -393h-94l254 393h176zM129 963h782v-78l-628 -772h616v-113h-795v78l629 776h-604v109z" />
    <glyph glyph-name="Zdotaccent" unicode="&#x17b;" horiz-adv-x="1273" 
d="M565 1757h162v-162h-162v162zM139 1364h1035v-82l-877 -1159h862v-123h-1057v82l881 1161h-844v121z" />
    <glyph glyph-name="zdotaccent" unicode="&#x17c;" horiz-adv-x="1005" 
d="M434 1346h162v-162h-162v162zM129 963h782v-78l-628 -772h616v-113h-795v78l629 776h-604v109z" />
    <glyph glyph-name="Zcaron" unicode="&#x17d;" horiz-adv-x="1273" 
d="M303 1942q122 -25 209.5 -91t132.5 -151q47 85 134.5 151t207.5 91v-76q-202 -65 -268 -277h-146q-66 212 -270 277v76zM139 1364h1035v-82l-877 -1159h862v-123h-1057v82l881 1161h-844v121z" />
    <glyph glyph-name="zcaron" unicode="&#x17e;" horiz-adv-x="1005" 
d="M195 1575q111 -29 197.5 -106.5t123.5 -178.5q36 101 122 178.5t198 106.5v-76q-191 -75 -254 -328h-133q-63 253 -254 328v76zM129 963h782v-78l-628 -772h616v-113h-795v78l629 776h-604v109z" />
    <glyph glyph-name="Aringacute" unicode="&#x1fa;" horiz-adv-x="1429" 
d="M1087 2142l-323 -342h-100l249 342h174zM1192 0l-145 362h-672l-144 -362h-147l528 1311q-62 24 -97.5 76t-35.5 116q0 86 65 147.5t169 61.5q105 0 170 -61.5t65 -147.5q0 -63 -35 -114.5t-98 -77.5l528 -1311h-151zM713 1636q-67 0 -107.5 -38t-40.5 -95
q0 -58 40 -95.5t108 -37.5q69 0 109 37.5t40 95.5q0 57 -40 95t-109 38zM711 1206l-289 -727h579z" />
    <glyph glyph-name="aringacute" unicode="&#x1fb;" horiz-adv-x="1091" 
d="M918 2071l-336 -394h-95l254 394h177zM535 1563q103 0 167 -61.5t64 -147.5q0 -89 -64 -150t-167 -61q-102 0 -166 61.5t-64 149.5q0 86 64.5 147.5t165.5 61.5zM535 1485q-65 0 -105.5 -38t-40.5 -93q0 -58 40.5 -96.5t105.5 -38.5t105 38.5t40 96.5q0 55 -40 93
t-105 38zM780 182q-136 -202 -379 -202q-134 0 -207 67.5t-73 188.5q0 84 38 143.5t122 101.5q144 72 499 97v65q0 231 -243 231q-119 0 -188.5 -53.5t-69.5 -146.5v-15h-125v19q0 136 100.5 223.5t284.5 87.5q185 0 277.5 -88.5t92.5 -255.5v-405q0 -95 25.5 -122.5
t103.5 -27.5v-96h-51q-97 0 -148 40t-59 148zM254 242q0 -156 180 -156q83 0 164 41.5t131.5 105.5t50.5 127v125q-306 -21 -415 -77q-62 -29 -86.5 -69t-24.5 -97z" />
    <glyph glyph-name="AEacute" unicode="&#x1fc;" horiz-adv-x="2050" 
d="M1440 1917l-326 -342h-100l250 342h176zM-23 0l936 1364h1024v-121h-802v-493h637v-119h-637v-510h804v-121h-948v365h-600l-248 -365h-166zM987 1243l-518 -764h522v764h-4z" />
    <glyph glyph-name="aeacute" unicode="&#x1fd;" horiz-adv-x="1736" 
d="M1214 1556l-335 -393h-95l254 393h176zM1628 293q0 -142 -109 -232t-288 -90q-162 0 -263.5 67t-144.5 187q-58 -123 -165 -186.5t-248 -63.5q-139 0 -214 67.5t-75 188.5q0 84 38 144t122 102q148 74 497 96v76q0 115 -58.5 170t-182.5 55q-118 0 -187 -54t-69 -146v-17
h-127v21q0 136 100.5 223.5t284.5 87.5q263 0 329 -188q114 190 346 190q105 0 185.5 -36t130.5 -100.5t75 -148.5t25 -184v-69h-721v-29q0 -153 77.5 -245.5t244.5 -92.5q125 0 198.5 59.5t73.5 151.5v6h125v-10zM1212 879q-139 0 -218 -91.5t-85 -240.5h590
q-3 150 -74 241t-213 91zM256 238q0 -156 180 -156q139 0 240.5 87.5t101.5 211.5v100q-297 -18 -411 -75q-62 -31 -86.5 -71t-24.5 -97z" />
    <glyph glyph-name="Oslashacute" unicode="&#x1fe;" horiz-adv-x="1492" 
d="M1077 1927l-323 -342h-101l250 342h174zM748 -31q-228 0 -377 115l-142 -174l-82 61l146 187q-146 172 -146 444v160q0 290 161.5 461.5t439.5 171.5q226 0 378 -115l140 174l82 -61l-144 -189q144 -171 144 -442v-160q0 -291 -160.5 -462t-439.5 -171zM291 588
q0 -190 88 -320l665 908q-121 100 -296 100q-209 0 -333 -137t-124 -363v-188zM1204 776q0 191 -88 318l-663 -906q121 -100 295 -100q209 0 332.5 137t123.5 363v188z" />
    <glyph glyph-name="oslashacute" unicode="&#x1ff;" horiz-adv-x="1112" 
d="M893 1563l-336 -394h-94l256 394h174zM555 -29q-158 0 -272 84l-113 -139l-70 55l115 148q-106 121 -106 313v92q0 204 120.5 335.5t327.5 131.5q160 0 274 -84l111 140l70 -56l-115 -145q107 -125 107 -320v-92q0 -201 -124.5 -332t-324.5 -131zM242 424q0 -117 55 -207
l459 596q-81 68 -201 68q-146 0 -229.5 -97.5t-83.5 -248.5v-111zM870 535q0 122 -57 210l-457 -593q82 -70 199 -70q140 0 227.5 96.5t87.5 245.5v111z" />
    <glyph glyph-name="Scommaaccent" unicode="&#x218;" horiz-adv-x="1304" 
d="M662 1391q131 0 230.5 -32.5t157.5 -89t86.5 -127t28.5 -153.5v-45h-145v39q0 59 -19 109t-59.5 91.5t-113 65t-171.5 23.5q-158 0 -253 -70.5t-95 -183.5q0 -39 8.5 -69t30 -54.5t48 -42.5t74.5 -36t97.5 -32.5t126.5 -33.5q133 -31 217.5 -61.5t148.5 -75.5t92 -106.5
t28 -148.5q0 -179 -138 -282t-364 -103q-269 0 -404 113.5t-135 300.5v53h146v-43q0 -142 97.5 -223.5t299.5 -81.5q160 0 256 67t96 189q0 121 -81.5 175.5t-313.5 109.5q-128 29 -209 57.5t-145 71.5t-92.5 103t-28.5 145q0 168 136.5 274.5t361.5 106.5zM578 -229h176
v-160q0 -221 -252 -279v50q177 51 174 206h-98v183z" />
    <glyph glyph-name="scommaaccent" unicode="&#x219;" horiz-adv-x="1024" 
d="M524 -27q-204 0 -307.5 91t-103.5 233v31h123v-25q0 -100 74 -160.5t216 -60.5q118 0 186 46t68 130q0 74 -59 112.5t-223 65.5q-192 32 -277.5 94t-85.5 181q0 117 102.5 197.5t272.5 80.5q185 0 282 -85t97 -218v-22h-121v16q0 93 -67.5 148t-194.5 55q-106 0 -175 -47
t-69 -119t63 -110t222 -66q195 -31 277.5 -92.5t82.5 -184.5q0 -129 -103.5 -210t-279.5 -81zM420 -229h178v-158q0 -223 -254 -281v52q176 50 176 206h-100v181z" />
    <glyph glyph-name="schwa" unicode="&#x259;" horiz-adv-x="1069" 
d="M958 451q0 -207 -117 -343.5t-317 -136.5q-138 0 -234 64t-140 167.5t-44 237.5v72h721v27q0 73 -17.5 133t-54 107.5t-100 73.5t-149.5 26q-124 0 -198.5 -60.5t-74.5 -150.5v-6h-124v10q0 139 110 229t287 90q115 0 203 -35t141.5 -98t80.5 -145.5t27 -182.5v-79z
M524 84q138 0 217.5 93t85.5 241h-589q3 -151 73 -242.5t213 -91.5z" />
    <glyph glyph-name="circumflex" unicode="&#x2c6;" horiz-adv-x="1024" 
d="M444 1550h136q60 -251 254 -327v-76q-112 29 -198.5 106.5t-123.5 178.5q-37 -101 -123.5 -178.5t-198.5 -106.5v76q194 76 254 327z" />
    <glyph glyph-name="circumflex" unicode="&#x302;" horiz-adv-x="1024" 
d="M444 1550h136q60 -251 254 -327v-76q-112 29 -198.5 106.5t-123.5 178.5q-37 -101 -123.5 -178.5t-198.5 -106.5v76q194 76 254 327z" />
    <glyph glyph-name="caron" unicode="&#x2c7;" horiz-adv-x="1024" 
d="M190 1575q112 -29 198.5 -106.5t123.5 -178.5q37 101 123.5 178.5t198.5 106.5v-76q-194 -76 -254 -328h-136q-60 252 -254 328v76z" />
    <glyph glyph-name="caron" unicode="&#x30c;" horiz-adv-x="1024" 
d="M190 1575q112 -29 198.5 -106.5t123.5 -178.5q37 101 123.5 178.5t198.5 106.5v-76q-194 -76 -254 -328h-136q-60 252 -254 328v76z" />
    <glyph glyph-name="breve" unicode="&#x2d8;" horiz-adv-x="1024" 
d="M512 1262q107 0 155 37.5t48 119.5q0 39 -13 119h76q25 -88 25 -154q0 -117 -81 -176t-210 -59t-210 59t-81 176q0 66 25 154h76q-13 -83 -13 -119q0 -82 48 -119.5t155 -37.5z" />
    <glyph glyph-name="breve" unicode="&#x306;" horiz-adv-x="1024" 
d="M512 1262q107 0 155 37.5t48 119.5q0 39 -13 119h76q25 -88 25 -154q0 -117 -81 -176t-210 -59t-210 59t-81 176q0 66 25 154h76q-13 -83 -13 -119q0 -82 48 -119.5t155 -37.5z" />
    <glyph glyph-name="dotaccent" unicode="&#x2d9;" horiz-adv-x="1024" 
d="M430 1346h164v-162h-164v162z" />
    <glyph glyph-name="dotaccent" unicode="&#x307;" horiz-adv-x="1024" 
d="M430 1346h164v-162h-164v162z" />
    <glyph glyph-name="ring" unicode="&#x2da;" horiz-adv-x="1024" 
d="M512 1556q102 0 166.5 -61t64.5 -147q0 -88 -64.5 -149.5t-166.5 -61.5t-166.5 61.5t-64.5 149.5q0 86 64.5 147t166.5 61zM512 1481q-64 0 -104.5 -38.5t-40.5 -94.5q0 -58 40 -96t105 -38t105 38t40 96q0 56 -40.5 94.5t-104.5 38.5z" />
    <glyph glyph-name="ring" unicode="&#x30a;" horiz-adv-x="1024" 
d="M512 1556q102 0 166.5 -61t64.5 -147q0 -88 -64.5 -149.5t-166.5 -61.5t-166.5 61.5t-64.5 149.5q0 86 64.5 147t166.5 61zM512 1481q-64 0 -104.5 -38.5t-40.5 -94.5q0 -58 40 -96t105 -38t105 38t40 96q0 56 -40.5 94.5t-104.5 38.5z" />
    <glyph glyph-name="ogonek" unicode="&#x2db;" horiz-adv-x="1024" 
d="M694 -414l37 -67q-78 -58 -186 -58q-103 0 -161 51t-58 136q0 59 28 116q45 88 209 244l80 -8q-82 -89 -120.5 -136t-57.5 -85q-29 -63 -29 -111q0 -59 34 -89t91 -30q66 0 133 37z" />
    <glyph glyph-name="ogonek" unicode="&#x328;" horiz-adv-x="1024" 
d="M694 -414l37 -67q-78 -58 -186 -58q-103 0 -161 51t-58 136q0 59 28 116q45 88 209 244l80 -8q-82 -89 -120.5 -136t-57.5 -85q-29 -63 -29 -111q0 -59 34 -89t91 -30q66 0 133 37z" />
    <glyph glyph-name="tilde" unicode="&#x2dc;" horiz-adv-x="1024" 
d="M346 1487q35 0 64.5 -10.5t57 -34.5t43 -41t42.5 -51q25 -34 40 -51.5t39.5 -33.5t49.5 -16q35 0 58.5 26.5t23.5 80.5q0 63 -16 123h79q23 -90 23 -140q0 -92 -48 -142t-122 -50q-34 0 -64 11t-57 34.5t-42.5 40.5t-41.5 49q-24 30 -33 40t-28.5 29t-36 26t-35.5 7
q-36 0 -59 -25.5t-23 -80.5q0 -61 16 -121h-77q-25 77 -25 137q0 93 49 143t123 50z" />
    <glyph glyph-name="tilde" unicode="&#x303;" horiz-adv-x="1024" 
d="M346 1487q35 0 64.5 -10.5t57 -34.5t43 -41t42.5 -51q25 -34 40 -51.5t39.5 -33.5t49.5 -16q35 0 58.5 26.5t23.5 80.5q0 63 -16 123h79q23 -90 23 -140q0 -92 -48 -142t-122 -50q-34 0 -64 11t-57 34.5t-42.5 40.5t-41.5 49q-24 30 -33 40t-28.5 29t-36 26t-35.5 7
q-36 0 -59 -25.5t-23 -80.5q0 -61 16 -121h-77q-25 77 -25 137q0 93 49 143t123 50z" />
    <glyph glyph-name="hungarumlaut" unicode="&#x2dd;" horiz-adv-x="1024" 
d="M539 1554l-306 -393h-86l234 393h158zM877 1554l-306 -393h-86l234 393h158z" />
    <glyph glyph-name="hungarumlaut" unicode="&#x30b;" horiz-adv-x="1024" 
d="M539 1554l-306 -393h-86l234 393h158zM877 1554l-306 -393h-86l234 393h158z" />
    <glyph glyph-name="commaaccent" unicode="&#x326;" horiz-adv-x="1024" 
d="M463 -223h176v-158q0 -223 -254 -281v52q176 47 176 207h-98v180z" />
    <glyph glyph-name="baht" unicode="&#xe3f;" horiz-adv-x="1386" 
d="M823 0h-59v-236h-119v236h-407v1364h409v235h117v-235h49q209 0 312.5 -89.5t103.5 -242.5v-37q0 -234 -248 -301v-6q134 -31 202 -107t68 -204v-45q0 -153 -108 -242.5t-320 -89.5zM379 1249v-508h395q154 0 235 66.5t81 181.5v35q0 106 -76.5 165.5t-222.5 59.5h-412z
M379 635v-520h432q149 0 224 60.5t75 166.5v41q0 116 -84 184t-248 68h-399z" />
    <glyph glyph-name="Wgrave" unicode="&#x1e80;" horiz-adv-x="2082" 
d="M666 1921h176l250 -342h-101zM106 1364h150l344 -1176h4l371 1180h133l377 -1180h4l342 1176h145l-426 -1380h-137l-373 1165h-4l-372 -1165h-140z" />
    <glyph glyph-name="wgrave" unicode="&#x1e81;" horiz-adv-x="1581" 
d="M408 1554h176l256 -393h-97zM68 963h139l254 -805h4l260 805h133l264 -805h4l254 805h136l-330 -971h-121l-274 805h-5l-270 -805h-121z" />
    <glyph glyph-name="Wacute" unicode="&#x1e82;" horiz-adv-x="2082" 
d="M1417 1921l-325 -342h-101l250 342h176zM106 1364h150l344 -1176h4l371 1180h133l377 -1180h4l342 1176h145l-426 -1380h-137l-373 1165h-4l-372 -1165h-140z" />
    <glyph glyph-name="wacute" unicode="&#x1e83;" horiz-adv-x="1581" 
d="M1176 1554l-336 -393h-97l256 393h177zM68 963h139l254 -805h4l260 805h133l264 -805h4l254 805h136l-330 -971h-121l-274 805h-5l-270 -805h-121z" />
    <glyph glyph-name="Wdieresis" unicode="&#x1e84;" horiz-adv-x="2082" 
d="M776 1767h154v-165h-154v165zM1157 1767h154v-165h-154v165zM106 1364h150l344 -1176h4l371 1180h133l377 -1180h4l342 1176h145l-426 -1380h-137l-373 1165h-4l-372 -1165h-140z" />
    <glyph glyph-name="wdieresis" unicode="&#x1e85;" horiz-adv-x="1581" 
d="M549 1350h151v-166h-151v166zM893 1350h154v-166h-154v166zM68 963h139l254 -805h4l260 805h133l264 -805h4l254 805h136l-330 -971h-121l-274 805h-5l-270 -805h-121z" />
    <glyph glyph-name="Ygrave" unicode="&#x1ef2;" horiz-adv-x="1327" 
d="M352 1903h174l250 -342h-100zM66 1364h163l441 -700l432 700h158l-523 -829v-535h-145v537z" />
    <glyph glyph-name="ygrave" unicode="&#x1ef3;" horiz-adv-x="1046" 
d="M229 1540h177l253 -393h-94zM68 963h143l326 -822l315 822h141l-391 -965q-75 -177 -154.5 -247t-222.5 -70h-63v114h43q97 0 148 36t87 118l21 49z" />
    <glyph glyph-name="enspace" unicode="&#x2002;" horiz-adv-x="1024" 
 />
    <glyph glyph-name="emspace" unicode="&#x2003;" horiz-adv-x="2048" 
 />
    <glyph glyph-name="threeperemspace" unicode="&#x2004;" horiz-adv-x="681" 
 />
    <glyph glyph-name="fourperemspace" unicode="&#x2005;" horiz-adv-x="512" 
 />
    <glyph glyph-name="thinspace" unicode="&#x2009;" horiz-adv-x="272" 
 />
    <glyph glyph-name="hairspace" unicode="&#x200a;" horiz-adv-x="153" 
 />
    <glyph glyph-name="endash" unicode="&#x2013;" horiz-adv-x="1284" 
d="M166 676h954v-111h-954v111z" />
    <glyph glyph-name="emdash" unicode="&#x2014;" horiz-adv-x="1884" 
d="M172 676h1542v-111h-1542v111z" />
    <glyph glyph-name="quoteleft" unicode="&#x2018;" horiz-adv-x="475" 
d="M322 850h-181v147q0 165 62 250.5t200 124.5v-51q-99 -48 -133 -105.5t-34 -160.5h86v-205z" />
    <glyph glyph-name="quoteright" unicode="&#x2019;" horiz-adv-x="475" 
d="M152 1364h180v-147q0 -164 -61 -249t-199 -126v51q98 48 133 106t35 160h-88v205z" />
    <glyph glyph-name="quotesinglbase" unicode="&#x201a;" horiz-adv-x="464" 
d="M143 205h181v-146q0 -165 -62 -250t-201 -126v51q99 49 133.5 107t36.5 159h-88v205z" />
    <glyph glyph-name="quotedblleft" unicode="&#x201c;" horiz-adv-x="845" 
d="M694 850h-180v147q0 166 61 251t199 124v-51q-98 -48 -133 -106t-35 -160h88v-205zM322 850h-181v147q0 165 62 250.5t200 124.5v-51q-99 -48 -133 -105.5t-34 -160.5h86v-205z" />
    <glyph glyph-name="quotedblright" unicode="&#x201d;" horiz-adv-x="845" 
d="M152 1364h180v-147q0 -164 -61 -249t-199 -126v51q98 48 133 106t35 160h-88v205zM524 1364h181v-147q0 -164 -62.5 -249t-200.5 -126v51q99 48 133.5 106t34.5 160h-86v205z" />
    <glyph glyph-name="quotedblbase" unicode="&#x201e;" 
d="M143 207h181v-148q0 -165 -62 -250t-201 -124v49q99 49 133.5 107t36.5 159h-88v207zM514 207h180v-148q0 -165 -61 -250t-199 -124v49q98 49 133 107.5t35 158.5h-88v207z" />
    <glyph glyph-name="dagger" unicode="&#x2020;" horiz-adv-x="974" 
d="M424 715q0 126 37 274q-100 -31 -311 -31q-11 0 -20 6.5t-9 20.5v59q0 11 9.5 18t19.5 7q213 0 311 -29q-33 129 -33 295q0 10 7.5 19.5t19.5 9.5h63q14 0 21.5 -9t7.5 -20q0 -147 -33 -295q98 29 309 29q12 0 21.5 -7t9.5 -18v-59q0 -27 -31 -27q-209 0 -311 31
q39 -144 39 -274q0 -209 -29 -482q-3 -28 -24 -28h-21q-13 0 -17.5 6.5t-6.5 21.5q-29 273 -29 482z" />
    <glyph glyph-name="daggerdbl" unicode="&#x2021;" horiz-adv-x="974" 
d="M430 784q0 58 31 205q-100 -31 -311 -31q-11 0 -20 6.5t-9 20.5v59q0 11 9.5 18t19.5 7q213 0 311 -29q-33 129 -33 295q0 10 7.5 19.5t19.5 9.5h63q14 0 21.5 -9t7.5 -20q0 -147 -33 -295q98 29 309 29q12 0 21.5 -7t9.5 -18v-59q0 -27 -31 -27q-209 0 -311 31
q31 -131 31 -205q0 -73 -31 -204q99 30 311 30q31 0 31 -26v-60q0 -11 -9.5 -17.5t-21.5 -6.5q-214 0 -309 28q33 -148 33 -295q0 -10 -7.5 -19t-21.5 -9h-63q-12 0 -19.5 9t-7.5 19q0 166 33 295q-95 -28 -311 -28q-10 0 -19.5 6.5t-9.5 17.5v60q0 26 29 26q214 0 311 -30
q-31 147 -31 204z" />
    <glyph glyph-name="bullet" unicode="&#x2022;" horiz-adv-x="751" 
d="M631 682q0 -112 -71.5 -184t-182.5 -72q-113 0 -184.5 72t-71.5 184t71.5 184t184.5 72q111 0 182.5 -72t71.5 -184z" />
    <glyph glyph-name="ellipsis" unicode="&#x2026;" horiz-adv-x="1409" 
d="M143 205h179v-205h-179v205zM1087 205h179v-205h-179v205zM614 205h179v-205h-179v205z" />
    <glyph glyph-name="guilsinglleft" unicode="&#x2039;" horiz-adv-x="786" 
d="M565 954h88q-41 -151 -127 -263t-237 -210q150 -96 236 -208.5t128 -262.5h-88q-108 278 -444 422v98q335 144 444 424z" />
    <glyph glyph-name="guilsinglright" unicode="&#x203a;" horiz-adv-x="786" 
d="M221 10h-88q40 149 126.5 261.5t236.5 209.5q-150 99 -237 211t-126 262h88q107 -279 445 -424v-98q-337 -145 -445 -422z" />
    <glyph glyph-name="fraction" unicode="&#x2044;" horiz-adv-x="344" 
d="M725 1364l-997 -1364h-111l999 1364h109z" />
    <glyph glyph-name="zero.sup" unicode="&#x2070;" 
d="M418 1440q168 0 261 -105.5t93 -287.5v-66q0 -182 -93 -287.5t-261 -105.5t-261.5 105.5t-93.5 287.5v66q0 182 93.5 287.5t261.5 105.5zM418 1341q-117 0 -179.5 -77.5t-62.5 -216.5v-68q0 -138 62.5 -215.5t179.5 -77.5t179 77.5t62 215.5v68q0 140 -62 217t-179 77z
" />
    <glyph glyph-name="four.sup" unicode="&#x2074;" 
d="M508 1419h137v-532h135v-90h-135v-189h-106v189h-504v94zM539 887v438l-396 -438h396z" />
    <glyph glyph-name="five.sup" unicode="&#x2075;" 
d="M147 1419h576q-5 -61 -25 -80.5t-84 -19.5h-372l-23 -281q111 82 248 82q133 0 203.5 -68t70.5 -180v-6q0 -116 -83 -195t-236 -79q-164 0 -242 68t-78 171v9h107v-4q0 -68 55 -110t158 -42q94 0 151.5 49.5t57.5 132.5v2q0 74 -48.5 122t-144.5 48q-138 0 -233 -88
l-90 25z" />
    <glyph glyph-name="six.sup" unicode="&#x2076;" 
d="M418 590q-159 0 -246.5 83.5t-87.5 250.5v139q0 170 89.5 270.5t268.5 100.5q68 0 121.5 -15.5t85.5 -39t53 -55t29 -60t8 -56.5v-6h-108q0 50 -45 93.5t-140 43.5q-134 0 -192.5 -69.5t-58.5 -206.5v-59q84 106 262 106q143 0 220 -71.5t77 -172.5v-6q0 -52 -21 -99.5
t-61 -86t-105.5 -61.5t-148.5 -23zM418 684q103 0 162 49.5t59 120.5v8q0 67 -54.5 115.5t-160.5 48.5q-101 0 -164 -45.5t-63 -116.5q0 -84 60.5 -132t160.5 -48z" />
    <glyph glyph-name="seven.sup" unicode="&#x2077;" 
d="M76 1419h692v-73q-171 -173 -262.5 -354t-118.5 -384h-123q21 186 111.5 360t263.5 349h-563v102z" />
    <glyph glyph-name="eight.sup" unicode="&#x2078;" 
d="M418 1440q156 0 244 -67t88 -171v-2q0 -62 -41 -109t-117 -73q82 -27 126 -78.5t44 -116.5v-4q0 -106 -92.5 -168.5t-251.5 -62.5q-160 0 -252 62.5t-92 168.5v4q0 66 43.5 117t126.5 78q-77 26 -117.5 73t-40.5 109v2q0 104 87.5 171t244.5 67zM418 1346
q-100 0 -159.5 -40.5t-59.5 -107.5v-6q0 -60 61 -97.5t158 -37.5q96 0 157.5 37.5t61.5 97.5v6q0 66 -60 107t-159 41zM418 682q106 0 168.5 40t62.5 107v7q0 62 -64 101.5t-167 39.5q-104 0 -168 -39.5t-64 -101.5v-7q0 -68 62.5 -107.5t169.5 -39.5z" />
    <glyph glyph-name="nine.sup" unicode="&#x2079;" 
d="M418 1438q160 0 247 -85t87 -249v-141q0 -171 -89 -271t-272 -100q-83 0 -144.5 21.5t-93.5 56.5t-46.5 70t-14.5 71v8h109q0 -49 44.5 -90t143.5 -41q135 0 193.5 69t58.5 206v55q-87 -109 -264 -109q-140 0 -216.5 71t-76.5 169v14q0 112 87 193.5t247 81.5zM418 1341
q-103 0 -162 -49.5t-59 -122.5v-14q0 -63 55 -111.5t160 -48.5q95 0 161 45.5t66 114.5v2q0 85 -60.5 134.5t-160.5 49.5z" />
    <glyph glyph-name="zero.inf" unicode="&#x2080;" 
d="M418 514q168 0 261 -105.5t93 -287.5v-66q0 -182 -93 -287.5t-261 -105.5t-261.5 105.5t-93.5 287.5v66q0 182 93.5 287.5t261.5 105.5zM418 416q-117 0 -179.5 -77.5t-62.5 -217.5v-68q0 -138 62.5 -215.5t179.5 -77.5t179 77.5t62 215.5v68q0 140 -62 217.5t-179 77.5z
" />
    <glyph glyph-name="one.inf" unicode="&#x2081;" horiz-adv-x="618" 
d="M330 504h80v-821h-115v618h-209v82h53q95 0 137 25.5t54 95.5z" />
    <glyph glyph-name="two.inf" unicode="&#x2082;" 
d="M731 -317h-637v45q0 99 27.5 160.5t89 107t184.5 98.5q141 58 186.5 94t45.5 93q0 67 -57 102t-142 35q-96 0 -157.5 -44t-61.5 -122v-25h-107v29q0 114 89 184t241 70q148 0 227.5 -62.5t79.5 -162.5q0 -34 -7.5 -61t-27 -51.5t-39.5 -42t-60.5 -39.5t-73.5 -37.5
t-93 -41.5q-137 -57 -181 -101.5t-44 -131.5h518v-96z" />
    <glyph glyph-name="three.inf" unicode="&#x2083;" 
d="M422 510q147 0 230 -66t83 -159v-4q0 -64 -47.5 -116.5t-138.5 -70.5q95 -18 142.5 -70t47.5 -122v-4q0 -97 -84 -164.5t-235 -67.5q-91 0 -157.5 20.5t-103.5 55.5t-54 75t-17 87v22h105v-16q0 -67 54.5 -110.5t166.5 -43.5q94 0 153.5 40t59.5 106v2q0 65 -56 104
t-174 39h-102v86h102q116 0 172 41t56 100v7q0 61 -58 99t-151 38q-108 0 -164.5 -44t-56.5 -108v-16h-105v22q0 42 18 82t55 76t104 58t155 22z" />
    <glyph glyph-name="four.inf" unicode="&#x2084;" 
d="M508 492h137v-531h135v-90h-135v-188h-106v188h-504v94zM539 -39v438l-396 -438h396z" />
    <glyph glyph-name="five.inf" unicode="&#x2085;" 
d="M147 492h576q-5 -60 -25.5 -79.5t-83.5 -19.5h-372l-23 -280q111 82 248 82q133 0 203.5 -68t70.5 -180v-6q0 -116 -83 -195.5t-236 -79.5q-84 0 -147.5 19.5t-100 54t-54.5 76t-18 90.5v8h107v-4q0 -68 55 -110t158 -42q94 0 151.5 49.5t57.5 133.5v2q0 74 -48.5 122
t-144.5 48q-138 0 -233 -88l-90 24z" />
    <glyph glyph-name="six.inf" unicode="&#x2086;" 
d="M418 -336q-159 0 -246.5 83.5t-87.5 250.5v139q0 170 89.5 270.5t268.5 100.5q84 0 145.5 -22.5t92.5 -58.5t45 -72t14 -72v-7h-108q0 50 -45 94t-140 44q-134 0 -192.5 -70t-58.5 -207v-59q84 106 262 106q143 0 220 -71t77 -172v-7q0 -52 -21 -99.5t-61 -86
t-105.5 -61.5t-148.5 -23zM418 -242q103 0 162 49.5t59 120.5v9q0 67 -54.5 114t-160.5 47q-101 0 -164 -44t-63 -115q0 -84 60.5 -132.5t160.5 -48.5z" />
    <glyph glyph-name="seven.inf" unicode="&#x2087;" 
d="M76 492h692v-72q-171 -173 -262.5 -353.5t-118.5 -383.5h-123q41 372 375 708h-563v101z" />
    <glyph glyph-name="eight.inf" unicode="&#x2088;" 
d="M418 514q156 0 244 -67t88 -171v-2q0 -61 -40.5 -108.5t-117.5 -75.5q82 -26 126 -76.5t44 -115.5v-4q0 -106 -92.5 -169t-251.5 -63q-160 0 -252 63t-92 169v4q0 66 43.5 116t126.5 76q-78 28 -118 75t-40 109v2q0 104 87.5 171t244.5 67zM418 420q-100 0 -159.5 -40.5
t-59.5 -107.5v-6q0 -60 61 -97.5t158 -37.5q96 0 157.5 37.5t61.5 97.5v6q0 66 -60 107t-159 41zM418 -244q106 0 168.5 40.5t62.5 107.5v6q0 62 -63.5 100.5t-167.5 38.5t-168 -38.5t-64 -100.5v-6q0 -68 62.5 -108t169.5 -40z" />
    <glyph glyph-name="nine.inf" unicode="&#x2089;" 
d="M418 512q160 0 247 -85t87 -249v-141q0 -171 -89 -271t-272 -100q-83 0 -144.5 21.5t-93.5 56.5t-46.5 70t-14.5 71v9h109q0 -49 44.5 -90.5t143.5 -41.5q135 0 193.5 69t58.5 206v55q-86 -108 -264 -108q-140 0 -216.5 71t-76.5 168v15q0 112 87 193t247 81zM418 416
q-103 0 -162 -49.5t-59 -122.5v-15q0 -63 54.5 -111t160.5 -48q95 0 161 45t66 114v2q0 85 -61 135t-160 50z" />
    <glyph glyph-name="colonmonetary" unicode="&#x20a1;" horiz-adv-x="1419" 
d="M743 -31q-94 0 -190 27l-45 -244h-102l51 283q-145 74 -224 221.5t-79 337.5v176q0 172 64.5 309.5t190 221t293.5 92.5l39 213h103l-39 -213q119 -9 205 -47l47 260h102l-57 -314q84 -61 127 -148.5t43 -182.5v-68h-139v55q0 62 -23.5 119t-69.5 104.5t-122 76
t-173 28.5q-208 0 -328 -137.5t-120 -350.5v-213q0 -138 52 -247.5t155 -174.5t241 -65q97 0 173 28.5t122 76t69.5 104.5t23.5 119v55h139v-68q0 -72 -25 -140t-73.5 -126.5t-128.5 -101t-181 -58.5l-41 -225h-102l41 217h-19z" />
    <glyph glyph-name="naira" unicode="&#x20a6;" horiz-adv-x="1751" 
d="M485 1159l2 -1159h-127v471h-270v96h270v215h-270v97h270v485h150l750 -1157h4l-2 1157h129v-485h270v-97h-270v-215h270v-96h-270v-471h-148l-754 1159h-4z" />
    <glyph glyph-name="rupee" unicode="&#x20a8;" horiz-adv-x="2324" 
d="M379 580v-580h-141v1364h550q217 0 324 -93t107 -263v-66q0 -138 -90.5 -234t-251.5 -120l391 -588h-160l-383 580h-346zM379 696h377q152 0 237.5 67.5t85.5 182.5v55q0 123 -74.5 184.5t-230.5 61.5h-395v-551zM1802 -27q-204 0 -307.5 91t-103.5 233v31h122v-25
q0 -100 74 -160.5t217 -60.5q118 0 185 46t67 130q0 74 -58 112.5t-222 65.5q-192 32 -277.5 94t-85.5 181q0 117 102.5 197.5t272.5 80.5q185 0 282 -85t97 -218v-22h-123v16q0 94 -66.5 148.5t-193.5 54.5q-106 0 -175 -47t-69 -119t63 -110t222 -66q195 -31 277.5 -92.5
t82.5 -184.5q0 -129 -103.5 -210t-279.5 -81z" />
    <glyph glyph-name="won" unicode="&#x20a9;" horiz-adv-x="2041" 
d="M1016 1190l-301 -1198h-156l-113 459h-362v96h338l-51 209h-287v96h264l-127 512h137l285 -1204h4l303 1212h146l305 -1212h4l289 1204h129l-129 -512h266v-96h-291l-53 -209h344v-96h-369l-114 -459h-156l-301 1198h-4z" />
    <glyph glyph-name="sheqel" unicode="&#x20aa;" horiz-adv-x="1546" 
d="M158 1034h493q387 0 387 -332v-383h-110v367q0 114 -63.5 174t-205.5 60h-372v-920h-129v1034zM1407 1034v-700q0 -163 -96.5 -248.5t-292.5 -85.5h-477v715h112v-598h357q143 0 205.5 59t62.5 174v684h129z" />
    <glyph glyph-name="Euro" unicode="&#x20ac;" horiz-adv-x="1484" 
d="M1343 387q0 -75 -32.5 -147.5t-94.5 -133.5t-165 -99t-230 -38q-247 0 -399 132.5t-180 379.5h-164v94h160v7v200v4h-160v97h164q27 247 180.5 379.5t400.5 132.5q103 0 190 -25t146.5 -66.5t102 -96t62 -113t19.5 -117.5v-16h-137v4q0 54 -23 107.5t-68 100t-121 76
t-171 29.5q-189 0 -305 -100.5t-137 -294.5h618v-97h-622v-211h622v-94h-618q21 -192 138 -293.5t304 -101.5q94 0 170 29.5t121 76t68.5 100t23.5 107.5h137v-12z" />
    <glyph glyph-name="peso" unicode="&#x20b1;" horiz-adv-x="1574" 
d="M459 520v-520h-142v893h-268v102h268v369h519q220 0 331.5 -98t116.5 -271h264v-102h-264q-3 -176 -117.5 -274.5t-337.5 -98.5h-370zM457 1251v-258h686q-6 123 -83.5 190.5t-232.5 67.5h-370zM825 633q308 0 318 260h-686v-260h368z" />
    <glyph glyph-name="rupeeindia" unicode="&#x20b9;" horiz-adv-x="1400" 
d="M547 537h-199l811 -537h-215l-784 526v111h370q370 0 400 260h-770v100h772q-14 130 -104.5 195t-274.5 65h-393v107h1155v-107h-404q141 -88 156 -258h250v-106h-250q-15 -173 -148 -264.5t-372 -91.5z" />
    <glyph glyph-name="ruble" unicode="&#x20bd;" horiz-adv-x="1425" 
d="M1167 264h-665v-264h-142v264h-270v98h270v226h-270v98h270v678h508q222 0 331.5 -93.5t109.5 -262.5v-66q0 -354 -447 -354h-360v-226h665v-98zM502 1249v-563h356q165 -1 238 62t73 194v55q0 252 -311 252h-356z" />
    <glyph glyph-name="published" unicode="&#x2117;" horiz-adv-x="1822" 
d="M154 682q0 157 57 294.5t156 236t240.5 155.5t303.5 57q163 0 304.5 -57t241 -155.5t156 -236t56.5 -294.5t-56.5 -294.5t-156 -236t-241 -155.5t-304.5 -57q-162 0 -303.5 57t-240.5 155.5t-156 236t-57 294.5zM1575 682q0 188 -83 338.5t-235 236.5t-346 86t-346 -86
t-234.5 -236.5t-82.5 -338.5q0 -140 48.5 -262.5t134.5 -211t210.5 -139.5t269.5 -51q194 0 346 87t235 238.5t83 338.5zM672 1036h307q133 0 194.5 -56.5t61.5 -172.5q0 -117 -65.5 -174.5t-200.5 -57.5h-187v-247h-110v708zM782 942v-272h174q92 0 129 32.5t37 102.5
q0 73 -34 105t-125 32h-181z" />
    <glyph glyph-name="servicemark" unicode="&#x2120;" horiz-adv-x="1527" 
d="M346 1378q247 0 250 -200h-96q-3 120 -156 120q-67 0 -106 -26t-39 -66q0 -39 33.5 -57t134.5 -43q132 -31 183.5 -67.5t51.5 -112.5q0 -85 -67.5 -133t-182.5 -48q-264 0 -264 211h98q0 -129 168 -129q69 0 109.5 25t40.5 68q0 42 -36 62t-136 42q-127 27 -179.5 64.5
t-52.5 111.5q0 79 66 128.5t180 49.5zM758 1364h160l172 -471h4l172 471h153v-604h-92v497h-18l-185 -497h-77l-185 497h-16v-497h-88v604z" />
    <glyph glyph-name="trademark" unicode="&#x2122;" horiz-adv-x="1507" 
d="M63 1364h551v-88h-227v-514h-94v514h-230v88zM737 1364h160l174 -471h2l172 471h156v-604h-94v497h-17l-184 -497h-80l-184 497h-17v-497h-88v604z" />
    <glyph glyph-name="onethird" unicode="&#x2153;" horiz-adv-x="1808" 
d="M330 1376h80v-821h-115v619h-209v81h53q95 0 137 25.5t54 95.5zM1341 1364l-997 -1364h-111l998 1364h110zM1393 827q148 0 230.5 -65.5t82.5 -159.5v-4q0 -63 -47.5 -115.5t-138.5 -70.5q96 -19 143 -71.5t47 -123.5v-2q0 -97 -84 -164t-235 -67q-174 0 -253 68.5
t-79 168.5v23h106v-17q0 -67 54 -110t167 -43q94 0 152.5 39.5t58.5 105.5v2q0 65 -54.5 104.5t-172.5 39.5h-102v86h102q116 0 171.5 41t55.5 100v6q0 61 -57.5 99t-150.5 38q-108 0 -165 -44t-57 -107v-17h-106v23q0 42 18 82t55 76t104 57.5t155 21.5z" />
    <glyph glyph-name="twothirds" unicode="&#x2154;" horiz-adv-x="2070" 
d="M731 555h-637v45q0 75 13 125.5t49.5 93t91 75.5t147.5 73q142 59 187 94t45 92q0 67 -57 102t-142 35q-96 0 -157.5 -44t-61.5 -122v-24h-107v28q0 114 89 184t241 70q148 0 227.5 -62.5t79.5 -162.5q0 -41 -13.5 -73.5t-33 -55.5t-63.5 -49.5t-81 -44t-110 -49.5
q-136 -57 -180.5 -101.5t-44.5 -132.5h518v-96zM1604 1364l-998 -1364h-108l997 1364h109zM1657 827q147 0 230 -66t83 -159v-4q0 -63 -47.5 -115.5t-138.5 -70.5q95 -19 142.5 -71.5t47.5 -123.5v-2q0 -97 -84 -164t-235 -67q-174 0 -253 68.5t-79 168.5v23h104v-17
q0 -67 54.5 -110t167.5 -43q95 0 154 40t59 105v2q0 65 -56 104.5t-174 39.5h-102v86h102q116 0 172 41t56 100v6q0 61 -58 99t-151 38q-108 0 -164.5 -44t-56.5 -107v-17h-105v23q0 42 18 82t55 76t104 57.5t155 21.5z" />
    <glyph glyph-name="onefifth" unicode="&#x2155;" horiz-adv-x="1822" 
d="M330 1376h80v-821h-115v619h-209v81h53q95 0 137 25.5t54 95.5zM1341 1364l-997 -1364h-111l998 1364h110zM1133 809h577q-5 -59 -25.5 -78.5t-82.5 -19.5h-373l-23 -281q107 82 248 82q133 0 204 -69t71 -179v-6q0 -116 -83.5 -195t-236.5 -79q-164 0 -243 68t-79 171v8
h109v-4q0 -68 54 -109.5t157 -41.5q95 0 153 49t58 133v2q0 74 -48.5 122t-144.5 48q-138 0 -233 -88l-90 25z" />
    <glyph glyph-name="twofifths" unicode="&#x2156;" horiz-adv-x="2084" 
d="M731 555h-637v45q0 75 13 125.5t49.5 93t91 75.5t147.5 73q142 59 187 94t45 92q0 67 -57 102t-142 35q-96 0 -157.5 -44t-61.5 -122v-24h-107v28q0 114 89 184t241 70q148 0 227.5 -62.5t79.5 -162.5q0 -41 -13.5 -73.5t-33 -55.5t-63.5 -49.5t-81 -44t-110 -49.5
q-136 -57 -180.5 -101.5t-44.5 -132.5h518v-96zM1604 1364l-998 -1364h-108l997 1364h109zM1397 809h575q-5 -60 -24.5 -79t-81.5 -19h-375l-23 -281q111 82 248 82q133 0 205 -69t72 -179v-6q0 -116 -84 -195t-238 -79q-84 0 -147.5 19.5t-100 53.5t-54 75.5t-17.5 90.5v8
h106v-4q0 -68 55 -109.5t158 -41.5q95 0 152 49t57 133v2q0 74 -47.5 122t-142.5 48q-141 0 -236 -88l-90 25z" />
    <glyph glyph-name="threefifths" unicode="&#x2157;" horiz-adv-x="2050" 
d="M422 1382q147 0 230 -66t83 -159v-4q0 -63 -47.5 -115.5t-138.5 -70.5q95 -18 142.5 -70.5t47.5 -122.5v-4q0 -97 -84 -164t-235 -67q-174 0 -253 68.5t-79 168.5v23h105v-17q0 -67 54.5 -110t166.5 -43q95 0 154 40t59 105v2q0 65 -56 104.5t-174 39.5h-102v86h102
q116 0 172 41t56 100v6q0 61 -58 99t-151 38q-108 0 -164.5 -44t-56.5 -107v-17h-105v23q0 42 18 82t55 76t104 57.5t155 21.5zM1569 1364l-998 -1364h-108l997 1364h109zM1362 809h577q-6 -60 -26 -79t-82 -19h-375l-22 -281q111 82 247 82q135 0 206 -68.5t71 -179.5v-6
q0 -116 -83.5 -195t-238.5 -79q-84 0 -147.5 19.5t-100 53.5t-54 75.5t-17.5 90.5v8h106v-4q0 -68 55 -109.5t158 -41.5q95 0 152 49t57 133v2q0 75 -47 122.5t-143 47.5q-137 0 -236 -88l-90 25z" />
    <glyph glyph-name="fourfifths" unicode="&#x2158;" horiz-adv-x="2068" 
d="M508 1366h137v-532h135v-91h-135v-188h-106v188h-504v95zM1587 1364l-997 -1364h-109l998 1364h108zM539 834v438l-396 -438h396zM1380 809h578q-6 -60 -26.5 -79t-82.5 -19h-374l-23 -281q111 82 248 82q133 0 204.5 -69t71.5 -179v-6q0 -116 -83.5 -195t-237.5 -79
q-164 0 -242 68t-78 171v8h107v-4q0 -68 55 -109.5t158 -41.5q95 0 152 49t57 133v2q0 74 -48 122t-143 48q-140 0 -235 -88l-90 25z" />
    <glyph glyph-name="onesixth" unicode="&#x2159;" horiz-adv-x="1785" 
d="M330 1376h80v-821h-115v619h-209v81h53q95 0 137 25.5t54 95.5zM1341 1364l-997 -1364h-111l998 1364h110zM1368 -18q-159 0 -246.5 83t-87.5 250v140q0 170 90 270t269 100q68 0 122 -15.5t86 -39t53 -54.5t28.5 -59.5t7.5 -56.5v-6h-109q0 50 -44.5 92.5t-139.5 42.5
q-134 0 -193 -69t-59 -205v-60q85 107 262 107q143 0 220 -71.5t77 -172.5v-6q0 -52 -21 -99.5t-61 -86t-105.5 -61.5t-148.5 -23zM1368 76q103 0 163 49.5t60 120.5v8q0 66 -55 114t-160 48q-102 0 -165.5 -44.5t-63.5 -115.5q0 -84 60.5 -132t160.5 -48z" />
    <glyph glyph-name="fivesixths" unicode="&#x215a;" horiz-adv-x="2015" 
d="M147 1366h576q-5 -61 -25 -80.5t-84 -19.5h-372l-23 -281q111 82 248 82q133 0 203.5 -68t70.5 -180v-6q0 -116 -83 -195t-236 -79q-164 0 -242 68t-78 171v8h107v-4q0 -68 55 -109.5t158 -41.5q94 0 151.5 49.5t57.5 132.5v2q0 74 -48.5 122t-144.5 48q-138 0 -233 -88
l-90 25zM1571 1364l-1000 -1364h-108l997 1364h111zM1597 -18q-159 0 -246 83t-87 250v140q0 170 89.5 270t268.5 100q84 0 145.5 -22.5t92.5 -58.5t45 -72t14 -72v-6h-109q0 50 -44.5 92.5t-139.5 42.5q-135 0 -193.5 -69t-58.5 -205v-60q80 107 262 107q143 0 220 -71.5
t77 -172.5v-6q0 -52 -21 -99.5t-61 -86t-105.5 -61.5t-148.5 -23zM1597 76q103 0 162.5 49.5t59.5 120.5v8q0 67 -54.5 114.5t-160.5 47.5q-102 0 -165 -44.5t-63 -115.5q0 -84 60.5 -132t160.5 -48z" />
    <glyph glyph-name="oneeighth" unicode="&#x215b;" horiz-adv-x="1816" 
d="M330 1376h80v-821h-115v619h-209v81h53q95 0 137 25.5t54 95.5zM1341 1364l-997 -1364h-111l998 1364h110zM1397 831q157 0 244.5 -66.5t87.5 -170.5v-2q0 -127 -156 -184q82 -26 125 -76.5t43 -116.5v-4q0 -106 -92 -168.5t-252 -62.5q-159 0 -250.5 62.5t-91.5 168.5v4
q0 66 43 116.5t125 76.5q-156 56 -156 184v2q0 104 87 170.5t243 66.5zM1397 737q-99 0 -158 -40.5t-59 -106.5v-6q0 -60 60.5 -97.5t156.5 -37.5q97 0 158 37.5t61 97.5v6q0 66 -59 106.5t-160 40.5zM1397 74q107 0 169 39.5t62 107.5v6q0 62 -63 101t-168 39
q-103 0 -166.5 -39t-63.5 -101v-6q0 -68 62 -107.5t168 -39.5z" />
    <glyph glyph-name="threeeighths" unicode="&#x215c;" horiz-adv-x="2043" 
d="M422 1382q147 0 230 -66t83 -159v-4q0 -63 -47.5 -115.5t-138.5 -70.5q95 -18 142.5 -70.5t47.5 -122.5v-4q0 -97 -84 -164t-235 -67q-174 0 -253 68.5t-79 168.5v23h105v-17q0 -67 54.5 -110t166.5 -43q95 0 154 40t59 105v2q0 65 -56 104.5t-174 39.5h-102v86h102
q116 0 172 41t56 100v6q0 61 -58 99t-151 38q-108 0 -164.5 -44t-56.5 -107v-17h-105v23q0 42 18 82t55 76t104 57.5t155 21.5zM1569 1364l-998 -1364h-108l997 1364h109zM1626 831q156 0 244 -66.5t88 -170.5v-2q0 -61 -40.5 -108.5t-117.5 -75.5q82 -26 126 -77t44 -116
v-4q0 -106 -92.5 -168.5t-251.5 -62.5q-160 0 -252 62.5t-92 168.5v4q0 66 43.5 116.5t126.5 76.5q-78 28 -118 75t-40 109v2q0 104 87.5 170.5t244.5 66.5zM1626 737q-101 0 -160 -40.5t-59 -106.5v-6q0 -60 61 -97.5t158 -37.5t158 37.5t61 97.5v6q0 66 -60 106.5
t-159 40.5zM1626 74q107 0 169.5 39.5t62.5 107.5v6q0 62 -64 101t-168 39t-167.5 -39t-63.5 -101v-6q0 -68 62 -107.5t169 -39.5z" />
    <glyph glyph-name="fiveeighths" unicode="&#x215d;" horiz-adv-x="2043" 
d="M147 1366h576q-5 -61 -25 -80.5t-84 -19.5h-372l-23 -281q111 82 248 82q133 0 203.5 -68t70.5 -180v-6q0 -116 -83 -195t-236 -79q-164 0 -242 68t-78 171v8h107v-4q0 -68 55 -109.5t158 -41.5q94 0 151.5 49.5t57.5 132.5v2q0 74 -48.5 122t-144.5 48q-138 0 -233 -88
l-90 25zM1571 1364l-1000 -1364h-108l997 1364h111zM1626 831q156 0 244 -66.5t88 -170.5v-2q0 -62 -40 -109t-118 -75q83 -26 126.5 -76.5t43.5 -116.5v-4q0 -106 -92.5 -168.5t-251.5 -62.5q-160 0 -251 62t-91 169v4q0 66 42.5 116.5t125.5 76.5q-156 56 -156 184v2
q0 104 87 170.5t243 66.5zM1626 737q-100 0 -158.5 -40t-58.5 -107v-6q0 -60 60 -97.5t157 -37.5t158 37.5t61 97.5v6q0 66 -60 106.5t-159 40.5zM1626 74q107 0 169.5 39.5t62.5 107.5v6q0 62 -64 101t-168 39q-103 0 -166 -39t-63 -101v-6q0 -68 61 -107.5t168 -39.5z" />
    <glyph glyph-name="seveneighths" unicode="&#x215e;" horiz-adv-x="1847" 
d="M76 1366h692v-74q-171 -173 -262.5 -353.5t-118.5 -383.5h-123q21 186 111.5 360t263.5 349h-563v102zM1372 1364l-997 -1364h-109l998 1364h108zM1430 831q156 0 243.5 -66.5t87.5 -170.5v-2q0 -62 -40.5 -109t-116.5 -75q82 -26 126 -77t44 -116v-4
q0 -106 -92.5 -168.5t-251.5 -62.5q-160 0 -252.5 62.5t-92.5 168.5v4q0 66 43.5 116.5t126.5 76.5q-157 56 -157 184v2q0 104 87.5 170.5t244.5 66.5zM1430 737q-101 0 -160.5 -40.5t-59.5 -106.5v-6q0 -60 61.5 -97.5t158.5 -37.5t158 37.5t61 97.5v6q0 66 -60 106.5
t-159 40.5zM1430 74q107 0 169 39.5t62 107.5v6q0 62 -63.5 101t-167.5 39t-168 -39t-64 -101v-6q0 -68 62.5 -107.5t169.5 -39.5z" />
    <glyph glyph-name="minus" unicode="&#x2212;" horiz-adv-x="1249" 
d="M186 743h879v-122h-879v122z" />
    <glyph glyph-name="hcoslug" unicode="&#xe10b;" horiz-adv-x="1421" 
d="M1319 1434v-1639h-1217v1639h1217zM782 541q42 55 95 86q30 -52 88 -52q43 0 72.5 32t29.5 79t-29.5 77t-72.5 30q-70 0 -123 -78q-3 40 -30.5 59t-70.5 17q19 32 19 69q0 59 -52.5 105.5t-142.5 46.5q-99 0 -161 -52.5t-62 -121.5q0 -43 15 -75t49 -67
q-168 -57 -168 -186q0 -81 65 -136t158 -55q129 0 213 93q51 -52 89.5 -72.5t84.5 -20.5q68 0 114.5 53t49.5 140l-15 4q-34 -59 -88 -59q-30 0 -59 19.5t-68 64.5zM506 877q0 26 15 42.5t40 16.5q26 0 43 -21.5t17 -56.5q0 -46 -37 -102q-30 29 -42.5 42.5t-24 35
t-11.5 43.5zM639 700q61 42 86 70q23 -23 29 -49t-2 -52.5t-29 -62.5q-68 78 -84 94zM535 449q-46 0 -76.5 31.5t-30.5 78.5q0 49 33 82q72 -68 151 -168q-31 -24 -77 -24zM721 256v-106h12l8 16q10 -16 29 -16q17 0 25 13.5t8 29.5q0 18 -8.5 29t-22.5 11q-21 0 -27 -18v55
h-36v-14h12zM256 166v-14h61v14h-20v33h8q7 0 8.5 -3t3.5 -14h15v47h-15q-1 -8 -2 -10.5t-3 -4t-7 -1.5h-8v37h25q11 0 15 -5t7 -22h16v41h-104v-14h14v-84h-14zM586 254l-25 -4v-19h-14v-14h14v-41q0 -26 25 -26q22 0 28 26l-10 4q-3 -14 -10 -14q-8 0 -8 10v41h26v14h-26
v23zM356 193q0 -20 12 -31.5t31 -11.5t31 12t12 31q0 18 -12 29t-31 11t-31 -11t-12 -29zM618 180v-28h15l2 8q15 -10 27 -10q13 0 20.5 7.5t7.5 18.5q0 19 -24.5 25t-24.5 12q0 8 10 8q11 0 21 -14h14v26h-12l-4 -10q-7 10 -23 10q-13 0 -21 -7t-8 -17q0 -19 25 -26t25 -13
q0 -8 -11 -8q-12 0 -24 18h-15zM449 166v-14h45v14h-9v31q0 20 15 20q12 0 12 -14v-37h-8v-14h45v14h-12v39q0 28 -25 28q-20 0 -29 -22v20h-34v-14h12v-51h-12zM829 133q5 5 2.5 13t-12.5 8q-14 0 -14 -15q0 -18 22 -18q24 0 37 33l27 63h10v14h-35v-14h11l-17 -41l-18 41
h12v14h-51v-14h10q25 -47 33 -67q-3 -17 -17 -17zM416 193q0 -33 -17 -33q-16 0 -16 33q0 30 16 30q17 0 17 -30zM776 190q0 -26 -14 -26q-17 0 -17 26q0 27 17 27q14 0 14 -27zM565 14v-14h47v14h-10v52h29v-52h-10v-14h47v14h-13v107l-20 -4q-8 4 -19 4q-16 0 -27 -10
t-11 -29v-2h-15v-14h15v-52h-13zM961 55q0 -26 15.5 -41.5t43.5 -15.5q46 0 49 47h-16q-4 -33 -29 -33q-33 0 -33 45t29 45q12 0 18.5 -6.5t12.5 -25.5h16v45h-16l-2 -13q-15 15 -33 15q-22 0 -38.5 -17.5t-16.5 -44.5zM254 14v-14h59v14h-16v37h45v-37h-16v-14h59v14h-16
v84h16v15h-59v-15h16v-32h-45v32h16v15h-59v-15h16v-84h-16zM950 68h-37v-15h13q-2 -7 -13 -18q-4 4 -11.5 12.5t-12.5 13.5q22 9 22 25q0 10 -7.5 17.5t-20.5 7.5q-14 0 -24.5 -9t-10.5 -20q0 -13 12 -25q-26 -7 -26 -30q0 -29 36 -29q19 0 31 12q10 -12 25 -12q19 0 26 25
l-10 2q-3 -11 -8 -11t-12 11q12 16 18 28h10v15zM602 80v6q0 25 12 25l7 -2q-3 -3 -3 -7q0 -12 13 -12v-10h-29zM883 68q-13 13 -13 20q0 10 11 10q12 0 12 -12q0 -11 -10 -18zM506 37h53q3 45 -39 45q-17 0 -29 -12t-12 -31t11.5 -30t31.5 -11q30 0 37 29h-14
q-3 -15 -19 -15q-20 0 -20 25zM754 14v-14h53v14h-16v33q8 19 14 19v-3q0 -12 12 -12q14 0 14 15q0 16 -16 16q-15 0 -24 -23v21h-37v-14h12v-52h-12zM1075 41q0 -20 12 -31.5t31 -11.5t31 12t12 31t-12 30t-31 11t-31 -11t-12 -30zM387 41q0 -20 12 -31.5t31 -11.5t31 12
t12 31t-12 30t-31 11t-31 -11t-12 -30zM696 37h54q3 45 -39 45q-17 0 -29 -12t-12 -31t11.5 -30t31.5 -11q30 0 37 29h-15q-3 -15 -18 -15q-21 0 -21 25zM1135 41q0 -33 -17 -33q-16 0 -16 33q0 31 16 31q17 0 17 -31zM446 41q0 -33 -16 -33t-16 33q0 31 16 31t16 -31z
M696 47q0 25 15 25q14 0 14 -25h-29zM506 47q0 25 14 25q15 0 15 -25h-29zM895 18q-9 -6 -16 -6q-9 0 -15 6t-6 15q0 10 8 18q9 -9 29 -33zM1194 12q0 15 -14 15q-6 0 -10.5 -4.5t-4.5 -10.5q0 -14 15 -14q14 0 14 14z" />
    <glyph glyph-name="fi" unicode="&#xfb01;" horiz-adv-x="1234" 
d="M690 1417v-110h-76q-118 0 -168.5 -48t-50.5 -143v-153h291v-109h-291v-854h-133v854h-180v109h180v153q0 143 81.5 222t246.5 79h100zM903 1346h162v-162h-162v162zM915 963h136v-963h-136v963z" />
    <glyph glyph-name="fl" unicode="&#xfb02;" horiz-adv-x="1234" 
d="M690 1417v-110h-76q-118 0 -168.5 -48t-50.5 -143v-153h291v-109h-291v-854h-133v854h-180v109h180v153q0 143 81.5 222t246.5 79h100zM1051 1417v-1417h-136v1417h136z" />
    <glyph glyph-name="NUL" horiz-adv-x="0" 
 />
    <glyph glyph-name="Q.alt" horiz-adv-x="1492" 
d="M1159 -211v-108h-112q-207 0 -287 53.5t-80 197.5v62q-248 22 -390.5 189t-142.5 429v160q0 281 161.5 452t439.5 171t439 -170.5t161 -452.5v-160q0 -261 -142 -428t-389 -190v-68q0 -84 51.5 -110.5t206.5 -26.5h84zM748 1276q-207 0 -332 -137t-125 -353v-190
q0 -215 125 -351t332 -136t330.5 136t123.5 351v190q0 217 -123.5 353.5t-330.5 136.5z" />
    <glyph glyph-name="Q.alt2" horiz-adv-x="1501" 
d="M1456 -23q-61 -26 -123 -26q-69 0 -120.5 27t-106.5 98q-148 -107 -358 -107q-278 0 -439.5 172.5t-161.5 458.5v162q0 287 161 460t440 173q278 0 439 -173t161 -460v-162q0 -266 -150 -440q48 -58 83.5 -77.5t80.5 -19.5q32 0 94 15v-101zM291 590q0 -215 115 -346
q-5 35 -5 47q0 127 88.5 203.5t212.5 76.5q71 0 128.5 -19.5t105.5 -60.5t83.5 -85t78.5 -111l16 -29q90 133 90 320v190q0 224 -123.5 362t-332.5 138t-333 -138.5t-124 -361.5v-186zM500 279q0 -195 248 -195q170 0 286 96l-30 51q-74 118 -143.5 175t-164.5 57
q-87 0 -141.5 -53t-54.5 -131z" />
    <glyph glyph-name="R.alt" horiz-adv-x="1390" 
d="M213 1364h563q221 0 329.5 -91.5t108.5 -252.5v-49q0 -258 -276 -322v-4q134 -27 191 -94.5t57 -208.5v-174q0 -45 24 -66.5t80 -27.5v-74h-71q-88 0 -133.5 41t-45.5 119v182q0 133 -69 188.5t-244 55.5h-371v-586h-143v1364zM356 1245v-545h375q164 0 252 70t88 193v45
q0 113 -75.5 175t-233.5 62h-406z" />
    <glyph glyph-name="t.alt" horiz-adv-x="727" 
d="M252 1180l135 39v-256h297v-109h-297v-428q0 -78 4 -126.5t14.5 -92.5t33 -73.5t56 -56t87.5 -54.5v-23h-181q-86 57 -117.5 133t-31.5 244v477h-176v109h176v217z" />
    <glyph glyph-name="Racute.alt" horiz-adv-x="1390" 
d="M1012 1917l-324 -342h-100l250 342h174zM213 1364h563q221 0 329.5 -91.5t108.5 -252.5v-49q0 -258 -276 -322v-4q134 -27 191 -94.5t57 -208.5v-174q0 -45 24 -66.5t80 -27.5v-74h-71q-88 0 -133.5 41t-45.5 119v182q0 133 -69 188.5t-244 55.5h-371v-586h-143v1364z
M356 1245v-545h375q164 0 252 70t88 193v45q0 113 -75.5 175t-233.5 62h-406z" />
    <glyph glyph-name="Rcaron.alt" horiz-adv-x="1390" 
d="M338 1942q122 -25 209.5 -91t132.5 -151q47 85 134.5 151t207.5 91v-76q-202 -65 -268 -277h-146q-66 212 -270 277v76zM213 1364h563q221 0 329.5 -91.5t108.5 -252.5v-49q0 -258 -276 -322v-4q134 -27 191 -94.5t57 -208.5v-174q0 -45 24 -66.5t80 -27.5v-74h-71
q-88 0 -133.5 41t-45.5 119v182q0 133 -69 188.5t-244 55.5h-371v-586h-143v1364zM356 1245v-545h375q164 0 252 70t88 193v45q0 113 -75.5 175t-233.5 62h-406z" />
    <glyph glyph-name="Rcommaaccent.alt" horiz-adv-x="1390" 
d="M213 1364h563q221 0 329.5 -91.5t108.5 -252.5v-49q0 -258 -276 -322v-4q134 -27 191 -94.5t57 -208.5v-174q0 -45 24 -66.5t80 -27.5v-74h-71q-88 0 -133.5 41t-45.5 119v182q0 133 -69 188.5t-244 55.5h-371v-586h-143v1364zM356 1245v-545h375q164 0 252 70t88 193v45
q0 113 -75.5 175t-233.5 62h-406zM623 -209h176v-158q0 -114 -62 -182.5t-190 -97.5v51q177 47 174 205h-98v182z" />
    <glyph glyph-name="tcaron.alt" horiz-adv-x="727" 
d="M588 1483h131l-70 -371h-78zM252 1180l135 39v-256h297v-109h-297v-428q0 -78 4 -126.5t14.5 -92.5t33 -73.5t56 -56t87.5 -54.5v-23h-181q-86 57 -117.5 133t-31.5 244v477h-176v109h176v217z" />
    <glyph glyph-name="tcommaaccent.alt" horiz-adv-x="727" 
d="M252 1180l135 39v-256h297v-109h-297v-428q0 -78 4 -126.5t14.5 -92.5t33 -73.5t56 -56t87.5 -54.5v-23h-181q-86 57 -117.5 133t-31.5 244v477h-176v109h176v217zM305 -223h176v-158q0 -223 -254 -281v52q176 47 176 207h-98v180z" />
    <glyph glyph-name="one.alt" horiz-adv-x="1038" 
d="M989 0h-846v115h367v981h-391v100h71q203 0 277 36.5t84 153.5h98v-1271h340v-115z" />
    <glyph glyph-name="one.alt2" horiz-adv-x="641" 
d="M252 1241q70 21 76 158h63v-1399h-139v1241z" />
    <glyph glyph-name="colon.alt" horiz-adv-x="481" 
d="M150 1153h182v-205h-182v205zM150 418h182v-207h-182v207z" />
    <glyph glyph-name="guillemotleft.cap" horiz-adv-x="1314" 
d="M561 1153h88q-40 -149 -126 -260.5t-236 -210.5q150 -99 236 -210.5t126 -260.5h-88q-108 278 -444 422v98q336 144 444 422zM1090 1153h90q-41 -149 -128 -260.5t-237 -210.5q150 -99 237 -210.5t128 -260.5h-90q-108 277 -445 422v98q337 145 445 422z" />
    <glyph glyph-name="guillemotright.cap" horiz-adv-x="1308" 
d="M748 211h-89q40 148 126.5 260t236.5 211q-150 99 -236.5 211t-126.5 260h89q108 -278 444 -422v-98q-336 -144 -444 -422zM225 211h-90q41 149 128 260.5t237 210.5q-150 99 -237 210.5t-128 260.5h90q108 -277 445 -422v-98q-337 -145 -445 -422z" />
    <glyph glyph-name="guilsinglleft.cap" horiz-adv-x="786" 
d="M565 1153h88q-41 -150 -127.5 -261.5t-236.5 -209.5q150 -98 236.5 -209.5t127.5 -261.5h-88q-108 278 -444 422v98q336 144 444 422z" />
    <glyph glyph-name="guilsinglright.cap" horiz-adv-x="786" 
d="M221 211h-88q40 148 126.5 260t236.5 211q-150 99 -236.5 211t-126.5 260h88q108 -277 445 -422v-98q-337 -145 -445 -422z" />
    <glyph glyph-name="hyphen.cap" horiz-adv-x="864" 
d="M135 737h592v-110h-592v110z" />
    <glyph glyph-name="endash.cap" horiz-adv-x="1284" 
d="M166 737h954v-110h-954v110z" />
    <glyph glyph-name="emdash.cap" horiz-adv-x="1884" 
d="M172 737h1542v-110h-1542v110z" />
    <glyph glyph-name="at.cap" horiz-adv-x="1691" 
d="M920 1462q137 0 250.5 -35t190 -93.5t129.5 -137t77 -164t24 -176.5q0 -150 -57.5 -276.5t-151 -197.5t-200.5 -71q-96 0 -152.5 52.5t-50.5 136.5q-103 -174 -252 -174q-102 0 -162.5 68.5t-60.5 193.5q0 81 28 166t75.5 156t119.5 116t152 45q71 0 120.5 -39t69.5 -112
l45 139h115l-127 -410q-38 -119 -15 -185.5t107 -66.5q112 0 206.5 132.5t94.5 328.5q0 232 -156.5 375t-418.5 143q-196 0 -354.5 -99.5t-248.5 -276t-90 -396.5q0 -282 165.5 -448t459.5 -166q144 0 279.5 47.5t228.5 118.5l49 -72q-98 -78 -248.5 -129t-308.5 -51
q-333 0 -528 190.5t-195 509.5q0 246 104.5 443t285 306t401.5 109zM893 975q-80 0 -144 -66t-95 -153.5t-31 -169.5q0 -83 35.5 -124.5t101.5 -41.5q67 0 129.5 60.5t91.5 156.5l57 190q-5 63 -41.5 105.5t-103.5 42.5z" />
    <glyph glyph-name="registered.large" horiz-adv-x="1822" 
d="M154 682q0 157 57 294.5t156 236t240.5 155.5t303.5 57q163 0 304.5 -57t241 -155.5t156 -236t56.5 -294.5t-56.5 -294.5t-156 -236t-241 -155.5t-304.5 -57q-162 0 -303.5 57t-240.5 155.5t-156 236t-57 294.5zM1575 682q0 188 -83 338.5t-235 236.5t-346 86t-346 -86
t-234.5 -236.5t-82.5 -338.5q0 -140 48.5 -262.5t134.5 -211t210.5 -139.5t269.5 -51q194 0 346 87t235 238.5t83 338.5zM766 600v-272h-113v708h322q248 0 248 -217q0 -82 -42 -135t-118 -72l180 -284h-125l-172 272h-180zM766 942v-252h184q160 0 160 125q0 65 -35 96
t-114 31h-195z" />
    <glyph glyph-name="registered.large_alt" horiz-adv-x="1822" 
d="M154 682q0 157 57 294.5t156 236t240.5 155.5t303.5 57q163 0 304.5 -57t241 -155.5t156 -236t56.5 -294.5t-56.5 -294.5t-156 -236t-241 -155.5t-304.5 -57q-162 0 -303.5 57t-240.5 155.5t-156 236t-57 294.5zM1575 682q0 188 -83 338.5t-235 236.5t-346 86t-346 -86
t-234.5 -236.5t-82.5 -338.5q0 -140 48.5 -262.5t134.5 -211t210.5 -139.5t269.5 -51q194 0 346 87t235 238.5t83 338.5zM653 1036h328q244 0 244 -200q0 -82 -37.5 -124.5t-112.5 -58.5v-2q67 -14 97 -49t30 -100v-70q0 -49 47 -63v-41h-67q-92 0 -92 90v76
q0 57 -32.5 82.5t-115.5 25.5h-176v-274h-113v708zM766 942v-252h182q164 0 164 131q0 63 -35 92t-114 29h-197z" />
    <glyph glyph-name="registered.alt" horiz-adv-x="1110" 
d="M555 1395q193 0 318.5 -125t125.5 -309q0 -183 -125.5 -307t-318.5 -124t-318.5 124t-125.5 307q0 184 125.5 309t318.5 125zM555 1327q-168 0 -269.5 -102.5t-101.5 -263.5q0 -160 101.5 -263.5t269.5 -103.5t268.5 103.5t100.5 263.5q0 161 -100 263.5t-269 102.5z
M389 1178h205q76 0 113.5 -32t37.5 -89q0 -49 -21.5 -74.5t-66.5 -36.5q74 -17 74 -92v-23q0 -20 8 -29.5t31 -15.5v-30h-61q-60 0 -60 61v33q0 32 -18.5 47.5t-61.5 15.5h-98v-157h-82v422zM471 1110v-137h100q93 0 93 71q0 66 -84 66h-109z" />
    <glyph glyph-name="R_p" horiz-adv-x="2445" 
d="M379 580v-580h-141v1364h550q217 0 324 -93t107 -263v-66q0 -138 -90.5 -234t-251.5 -120l391 -588h-160l-383 580h-346zM379 696h377q152 0 237.5 67.5t85.5 182.5v55q0 123 -74.5 184.5t-230.5 61.5h-395v-551zM1929 -23q-67 0 -123.5 17t-98.5 48.5t-71 64.5t-57 77
v-501h-135v1280h112l13 -211q62 110 146.5 171.5t217.5 61.5q122 0 213 -60t137 -161.5t46 -228.5v-107q0 -126 -48 -228t-140 -162.5t-212 -60.5zM1903 88q136 0 213 100t77 248v90q0 148 -77.5 249.5t-212.5 101.5q-129 0 -226.5 -105t-97.5 -260v-61q0 -154 97 -258.5
t227 -104.5z" />
    <glyph glyph-name="R_p.alt" horiz-adv-x="2494" 
d="M238 1364h542q221 0 330 -91.5t109 -252.5v-49q0 -257 -277 -322v-4q135 -25 192.5 -93t57.5 -208v-176q0 -46 23 -67t79 -27v-74h-69q-88 0 -133 41t-45 119v184q0 132 -69.5 187t-244.5 55h-354v-586h-141v1364zM379 1245v-545h358q165 0 253.5 69.5t88.5 193.5v47
q0 235 -309 235h-391zM1493 963h113l12 -211q62 110 146.5 171.5t217.5 61.5q122 0 213 -60t137 -161.5t46 -228.5v-107q0 -194 -109 -322.5t-291 -128.5q-67 0 -123.5 17t-98.5 48.5t-71 64.5t-57 77v-501h-135v1280zM1954 877q-131 0 -228.5 -105t-97.5 -260v-61
q0 -155 97.5 -259t228.5 -104q135 0 213 100.5t78 247.5v90q0 96 -33 174.5t-100 127.5t-158 49z" />
    <glyph glyph-name="rupee.alt" horiz-adv-x="2369" 
d="M238 1364h542q221 0 330 -91.5t109 -252.5v-49q0 -257 -277 -322v-4q135 -25 192.5 -93t57.5 -208v-176q0 -46 23 -67t79 -27v-74h-69q-88 0 -133 41t-45 119v184q0 132 -69.5 187t-244.5 55h-354v-586h-141v1364zM379 1245v-545h358q165 0 253.5 69.5t88.5 193.5v47
q0 235 -309 235h-391zM1845 -27q-202 0 -306.5 91t-104.5 233v31h122v-25q0 -99 75 -160t218 -61q117 0 184.5 46t67.5 130q0 74 -58.5 112.5t-223.5 65.5q-191 32 -276 94t-85 181q0 117 102.5 197.5t270.5 80.5q185 0 283 -85t98 -218v-22h-123v16q0 94 -66.5 148.5
t-193.5 54.5q-107 0 -176.5 -47t-69.5 -119t63 -110t222 -66q196 -31 279 -92.5t83 -184.5q0 -130 -104 -210.5t-281 -80.5z" />
    <glyph glyph-name="rupeeindia.alt" horiz-adv-x="1413" 
d="M1163 74v-74h-59q-96 0 -146 40t-51 128l-2 72q0 101 -34.5 159.5t-120.5 88.5t-238 30h-352v113h338q400 0 434 264h-772v100h772q-14 131 -111.5 196.5t-294.5 65.5h-366v107h1155v-107h-412q151 -83 166 -260h248v-106h-248q-29 -250 -334 -307v-4q92 -11 153.5 -37.5
t95.5 -70t48 -96.5t15 -128l2 -74q0 -47 25.5 -70.5t88.5 -29.5z" />
    <glyph glyph-name="onehalf.alt" horiz-adv-x="2101" 
d="M762 555h-647v90h280v524h-295v86h115q117 0 161 25t52 96h80v-731h254v-90zM1628 1364l-999 -1364h-109l998 1364h110zM1997 0h-637v45q0 99 28 161t90 107.5t185 98.5q140 58 184.5 93.5t44.5 92.5q0 67 -55.5 101t-140.5 34q-98 0 -158.5 -43t-60.5 -121v-24h-107v28
q0 114 88 184t240 70q149 0 228 -62t79 -163q0 -41 -13.5 -73.5t-33 -55.5t-63.5 -49.5t-81 -44t-110 -49.5q-135 -57 -179.5 -101.5t-45.5 -132.5h518v-96z" />
    <glyph glyph-name="onethird.alt" horiz-adv-x="2107" 
d="M766 555h-647v90h280v524h-295v86h115q117 0 161 25t52 96h80v-731h254v-90zM1632 1364l-999 -1364h-109l998 1364h110zM1694 827q148 0 230.5 -65.5t82.5 -159.5v-4q0 -63 -47.5 -115.5t-138.5 -70.5q96 -19 144 -71.5t48 -123.5v-2q0 -96 -85 -163.5t-236 -67.5
q-174 0 -253 68.5t-79 168.5v23h106v-17q0 -67 54.5 -110t167.5 -43q94 0 152 39.5t58 105.5v2q0 65 -54.5 104.5t-172.5 39.5h-102v86h102q116 0 171.5 41t55.5 100v6q0 61 -57.5 99t-150.5 38q-108 0 -165 -44t-57 -107v-17h-106v23q0 42 18 82t55 76t104 57.5t155 21.5z
" />
    <glyph glyph-name="onequarter.alt" horiz-adv-x="1982" 
d="M766 555h-647v90h280v524h-295v86h115q117 0 161 25t52 96h80v-731h254v-90zM1632 1364l-999 -1364h-109l998 1364h110zM1657 809h135v-530h137v-91h-137v-188h-106v188h-504v95zM1686 279v438l-394 -438h394z" />
    <glyph glyph-name="onefifth.alt" horiz-adv-x="2127" 
d="M766 555h-647v90h280v524h-295v86h115q117 0 161 25t52 96h80v-731h254v-90zM1632 1364l-999 -1364h-109l998 1364h110zM1440 809h575q-5 -60 -25 -79t-83 -19h-373l-23 -281q111 82 248 82q133 0 204 -69t71 -179v-6q0 -116 -83.5 -195t-236.5 -79q-84 0 -147.5 19.5
t-100 53.5t-54 75.5t-17.5 90.5v8h106v-4q0 -68 55 -109.5t158 -41.5q95 0 152 49t57 133v2q0 74 -48 122t-144 48q-139 0 -234 -88l-90 25z" />
    <glyph glyph-name="onesixth.alt" horiz-adv-x="2086" 
d="M766 555h-647v90h280v524h-295v86h115q117 0 161 25t52 96h80v-731h254v-90zM1632 1364l-999 -1364h-109l998 1364h110zM1671 -18q-161 0 -248.5 83t-87.5 250v140q0 170 90 270t269 100q68 0 122 -15.5t86 -39t53 -54.5t28.5 -59.5t7.5 -56.5v-6h-109q0 50 -44 92.5
t-138 42.5q-135 0 -194.5 -69t-59.5 -205v-60q85 107 264 107q141 0 218 -71.5t77 -172.5v-6q0 -110 -87 -190t-247 -80zM1671 76q102 0 161.5 49.5t59.5 120.5v8q0 66 -55 114t-160 48q-102 0 -165.5 -44.5t-63.5 -115.5q0 -84 61 -132t162 -48z" />
    <glyph glyph-name="oneeighth.alt" horiz-adv-x="2117" 
d="M766 555h-647v90h280v524h-295v86h115q117 0 161 25t52 96h80v-731h254v-90zM1632 1364l-999 -1364h-109l998 1364h110zM1698 831q157 0 244.5 -66.5t87.5 -170.5v-2q0 -127 -156 -184q82 -26 125 -76.5t43 -116.5v-4q0 -106 -92 -168.5t-252 -62.5q-159 0 -250.5 62.5
t-91.5 168.5v4q0 66 43 116.5t125 76.5q-156 56 -156 184v2q0 104 87 170.5t243 66.5zM1698 737q-99 0 -158 -40.5t-59 -106.5v-6q0 -60 60.5 -97.5t156.5 -37.5q97 0 158 37.5t61 97.5v6q0 66 -59 106.5t-160 40.5zM1698 74q107 0 169 39.5t62 107.5v6q0 62 -63 101
t-168 39q-103 0 -166.5 -39t-63.5 -101v-6q0 -68 62 -107.5t168 -39.5z" />
    <glyph glyph-name="one.sup_alt" 
d="M766 608h-647v90h280v525h-295v86h115q117 0 161 25t52 96h80v-732h254v-90z" />
    <glyph glyph-name="one.inf_alt" 
d="M766 -317h-647v90h280v524h-295v86h115q117 0 161 25t52 96h80v-731h254v-90z" />
    <glyph glyph-name="zero.tab" horiz-adv-x="1347" 
d="M674 1395q265 0 412 -172.5t147 -464.5v-152q0 -292 -147 -464.5t-412 -172.5t-412 172.5t-147 464.5v152q0 292 147 464.5t412 172.5zM674 1278q-200 0 -310 -139.5t-110 -380.5v-152q0 -241 110 -379.5t310 -138.5q202 0 312 138.5t110 379.5v152q0 241 -110.5 380.5
t-311.5 139.5z" />
    <glyph glyph-name="one.tab" horiz-adv-x="1347" 
d="M713 1386h106v-1271h467v-115h-1100v115h494v977h-516v102h194q198 0 271.5 38t83.5 154z" />
    <glyph glyph-name="two.tab" horiz-adv-x="1347" 
d="M698 1395q244 0 373 -102t129 -273q0 -69 -24 -125t-49.5 -91.5t-103.5 -80.5t-123 -66.5t-170 -75.5q-24 -11 -36 -16q-100 -43 -163 -76.5t-111.5 -70.5t-72.5 -80t-35 -94t-11 -123h889v-121h-1034v76q0 98 15 169t46.5 129.5t92.5 109t139.5 95.5t201.5 101
q88 37 143.5 62.5t105.5 53t77 50t47.5 50t27.5 57t7 67.5q0 88 -49.5 146t-128.5 83t-185 25q-171 0 -278 -77t-107 -220v-45h-135v49q0 188 142.5 301t379.5 113z" />
    <glyph glyph-name="three.tab" horiz-adv-x="1347" 
d="M680 1395q125 0 223.5 -32t158 -86t90 -119.5t30.5 -137.5v-4q0 -109 -77.5 -200.5t-227.5 -123.5q158 -31 234.5 -118t76.5 -207v-7q0 -78 -31.5 -147t-92.5 -124t-160.5 -87.5t-225.5 -32.5q-122 0 -216 22.5t-152.5 59.5t-96 88.5t-52 104.5t-14.5 114v33h134v-29
q0 -125 93 -199.5t298 -74.5q175 0 275 74t100 203v4q0 119 -92.5 191.5t-297.5 72.5h-186v112h186q194 0 289.5 74t95.5 187v6q0 123 -99.5 193.5t-268.5 70.5q-100 0 -176.5 -23t-122 -62.5t-68 -87.5t-22.5 -102v-28h-135v33q0 54 16 106t55 104t97.5 91t152 63.5
t209.5 24.5z" />
    <glyph glyph-name="four.tab" horiz-adv-x="1347" 
d="M870 1364h168v-934h236v-115h-236v-315h-131v315h-825v107zM907 430v797l-671 -797h671z" />
    <glyph glyph-name="five.tab" horiz-adv-x="1347" 
d="M752 870q120 0 211.5 -33t147.5 -92.5t84 -136.5t28 -170v-6q0 -96 -32.5 -179t-95.5 -147t-165.5 -100.5t-233.5 -36.5q-116 0 -208.5 22t-152.5 59.5t-99.5 89.5t-56.5 108.5t-17 120.5v2h135q0 -126 97.5 -204.5t301.5 -78.5q174 0 280.5 88.5t106.5 249.5v8
q0 68 -19.5 124.5t-60.5 101t-109.5 69.5t-160.5 25q-247 0 -432 -160l-111 35l54 735h940q-5 -53 -17.5 -77t-42.5 -34t-94 -10h-665l-41 -520q182 147 428 147z" />
    <glyph glyph-name="six.tab" horiz-adv-x="1347" 
d="M674 -29q-266 0 -399.5 141t-133.5 392v297q0 130 33.5 236.5t101 187.5t177.5 125.5t254 44.5q108 0 194.5 -25.5t138.5 -64t87 -88t48 -94t13 -85.5v-24h-135v2q0 47 -19.5 91.5t-58 83t-106 62t-154.5 23.5q-439 0 -439 -488v-141q23 34 55 64.5t84.5 63.5t132.5 53
t175 20q227 0 356 -119t129 -301v-8q0 -92 -35 -172.5t-101 -142.5t-168.5 -98t-229.5 -36zM674 88q174 0 283.5 85t109.5 239v8q0 147 -100.5 232t-280.5 85q-114 0 -204.5 -35t-144.5 -104.5t-54 -163.5v-4q0 -160 109 -251t282 -91z" />
    <glyph glyph-name="seven.tab" horiz-adv-x="1347" 
d="M592 0h-150q37 317 191 621t461 620h-988v123h1147v-100q-299 -306 -456 -609.5t-205 -654.5z" />
    <glyph glyph-name="eight.tab" horiz-adv-x="1347" 
d="M674 1395q241 0 371.5 -110t130.5 -277v-2q0 -112 -64.5 -194t-191.5 -124q278 -91 278 -334v-2q0 -175 -139 -279t-385 -104t-384 103.5t-138 279.5v2q0 242 282 334q-128 42 -194 124.5t-66 193.5v2q0 167 129.5 277t370.5 110zM674 1278q-172 0 -267.5 -72.5
t-95.5 -199.5v-5q0 -124 97.5 -194t265.5 -70q169 0 266.5 70t97.5 194v5q0 127 -96 199.5t-268 72.5zM674 86q183 0 284 72.5t101 201.5v2q0 131 -101 203t-284 72q-182 0 -283.5 -72.5t-101.5 -202.5v-2q0 -129 101 -201.5t284 -72.5z" />
    <glyph glyph-name="nine.tab" horiz-adv-x="1347" 
d="M670 1395q179 0 299.5 -67t175.5 -184t55 -280v-299q0 -130 -33 -236.5t-100 -187.5t-177.5 -125.5t-256.5 -44.5q-105 0 -190.5 24.5t-138 62t-88.5 85.5t-50 92.5t-14 86.5v18h137v-4q0 -42 19 -83.5t57 -79.5t106 -61.5t156 -23.5q438 0 438 490v120
q-22 -34 -54 -64.5t-84 -63.5t-131.5 -52.5t-174.5 -19.5q-119 0 -213.5 34t-153.5 92.5t-90 134t-31 161.5v24q0 91 33.5 171t98.5 143.5t169.5 100t235.5 36.5zM670 1278q-177 0 -285.5 -85.5t-108.5 -248.5v-8q0 -157 99 -242.5t280 -85.5q176 0 291 83t115 227v6
q0 172 -108.5 263t-282.5 91z" />
    <glyph glyph-name="dollar.tab" horiz-adv-x="1347" 
d="M1188 367q0 -163 -122 -265t-323 -116v-234h-120v234q-119 7 -210 41t-147.5 88t-85 123.5t-28.5 152.5v53h139v-43q0 -139 100.5 -221t298.5 -82q162 0 260.5 68t98.5 190q0 61 -22 103.5t-75 74t-121 53t-180 46.5q-100 22 -170 43t-131 51t-97 67t-56.5 88t-20.5 117
q0 154 123 259.5t326 117.5v230h120v-232q113 -8 197.5 -42.5t134 -88.5t73.5 -118.5t24 -139.5v-45h-140v39q0 58 -18.5 106.5t-58.5 90t-113 65t-174 23.5q-160 0 -257.5 -71.5t-97.5 -182.5q0 -110 83 -162t307 -100q126 -29 208 -58t148.5 -73t96.5 -105t30 -145z" />
    <glyph glyph-name="sterling.tab" horiz-adv-x="1347" 
d="M950 -31q-54 0 -106.5 14.5t-103 43t-89 54.5t-89.5 64q-11 9 -17 13q-38 -85 -107 -137t-157 -52q-107 0 -166.5 56t-59.5 145t61.5 148t168.5 59q85 0 198 -60q6 34 6 68q0 112 -73 254h-254v100h203q-72 140 -72 265q0 170 118.5 280.5t340.5 110.5q214 0 329 -104
t115 -294v-43h-131v33q0 145 -83.5 218t-229.5 73q-67 0 -124 -16.5t-102.5 -49t-71.5 -88t-26 -127.5q0 -48 12.5 -96.5t26 -80t39.5 -81.5h469v-100h-420q53 -116 53 -242q0 -69 -22 -143q5 -4 49 -33.5t54 -36t46.5 -29t54 -29.5t47 -19.5t53.5 -16.5t48 -4q40 0 70 9.5
t57.5 34.5t42 77t14.5 129v82h125v-88q0 -187 -74 -274t-223 -87zM162 170q0 -48 31 -78.5t90 -30.5t105.5 42.5t70.5 115.5q-102 64 -174 64q-61 0 -92 -30.5t-31 -82.5z" />
    <glyph glyph-name="Euro.tab" horiz-adv-x="1347" 
d="M1235 387q0 -76 -29.5 -148.5t-86 -134t-151.5 -98.5t-214 -37q-234 0 -375 131t-166 381h-154v94h148v7v200v4h-148v97h154q23 249 165.5 380.5t375.5 131.5q120 0 215 -37t151.5 -98.5t85.5 -133.5t29 -149v-16h-133v4q0 56 -20 109.5t-60 100t-109 75t-157 28.5
q-178 0 -284 -100t-124 -295h557v-97h-561v-211h561v-94h-557q18 -195 125 -295t283 -100q87 0 156 28.5t109 75t60.5 100t20.5 109.5h133v-12z" />
    <glyph glyph-name="yen.tab" horiz-adv-x="1347" 
d="M1167 258h-424v-258h-133v258h-432v96h432v193l-10 16h-422v96h361l-445 705h158l430 -692l422 692h149l-440 -705h354v-96h-413l-11 -16v-193h424v-96z" />
    <glyph glyph-name="cent.tab" horiz-adv-x="1347" 
d="M1122 520q0 -60 -23.5 -116.5t-68.5 -103t-116 -78t-160 -38.5v-202h-121v202q-200 18 -307 143t-107 322v66q0 194 108 319.5t306 145.5v202h121v-202q176 -13 272 -109.5t96 -226.5v-10h-131v4q0 40 -16 78t-48.5 72.5t-91 55.5t-135.5 21q-169 0 -256.5 -94
t-87.5 -250v-78q0 -154 87 -249t253 -95q76 0 135.5 21t92.5 55.5t50 72.5t17 78v4h131v-10z" />
    <glyph glyph-name="numbersign.tab" horiz-adv-x="1347" 
d="M741 0l64 385h-361l-63 -385h-107l64 385h-264v104h280l64 385h-289v105h305l64 385h108l-63 -385h360l62 385h108l-63 -385h264v-105h-281l-63 -385h287v-104h-304l-63 -385h-109zM463 489h358l64 385h-359z" />
    <glyph glyph-name="degree.tab" horiz-adv-x="1347" 
d="M674 1395q194 0 308 -109.5t114 -277.5t-116.5 -277.5t-305.5 -109.5q-191 0 -306.5 108.5t-115.5 278.5q0 168 115 277.5t307 109.5zM674 1290q-140 0 -220.5 -77.5t-80.5 -204.5q0 -129 82 -205t219 -76q138 0 219.5 76t81.5 205q0 127 -80.5 204.5t-220.5 77.5z" />
    <glyph glyph-name="percent.tab" horiz-adv-x="2019" 
d="M545 1395q145 0 229 -90.5t84 -231.5v-43q0 -138 -86 -227.5t-229 -89.5q-144 0 -230 89t-86 228v43q0 140 85.5 231t232.5 91zM1692 1376l-1235 -1388h-129l1235 1388h129zM543 1296q-99 0 -151 -62t-52 -159v-47q0 -97 54 -157t151 -60q95 0 147.5 60t52.5 157v47
q0 97 -52 159t-150 62zM1477 -31q-144 0 -229 89.5t-85 228.5v45q0 139 84.5 229t231.5 90t231 -90t84 -229v-45q0 -138 -86 -228t-231 -90zM1479 68q97 0 149.5 60.5t52.5 156.5v49q0 97 -52 158t-152 61q-97 0 -149 -61t-52 -158v-49q0 -95 54 -156t149 -61z" />
    <glyph glyph-name="quotedbl.tab" horiz-adv-x="1347" 
d="M451 1364h159l-194 -647h-92zM913 1364h160l-201 -647h-92z" />
    <glyph glyph-name="quotesingle.tab" horiz-adv-x="673" 
d="M352 1364h164l-194 -647h-95z" />
    <glyph glyph-name="period.tab" horiz-adv-x="673" 
d="M246 205h180v-205h-180v205z" />
    <glyph glyph-name="comma.tab" horiz-adv-x="673" 
d="M246 205h180v-146q0 -165 -61 -250t-199 -126v51q98 49 133 107.5t35 158.5h-88v205z" />
    <glyph glyph-name="colon.tab" horiz-adv-x="673" 
d="M246 940h180v-205h-180v205zM246 205h180v-205h-180v205z" />
    <glyph glyph-name="semicolon.tab" horiz-adv-x="673" 
d="M246 940h180v-205h-180v205zM246 205h180v-146q0 -165 -61 -250t-199 -126v51q98 49 133 107.5t35 158.5h-88v205z" />
    <glyph glyph-name="periodcentered.tab" horiz-adv-x="673" 
d="M246 784h180v-204h-180v204z" />
    <glyph glyph-name="slash.tab" horiz-adv-x="1347" 
d="M1151 1556h131l-1079 -1873h-131z" />
    <glyph glyph-name="bar.tab" horiz-adv-x="673" 
d="M276 1556h119v-1873h-119v1873z" />
    <glyph glyph-name="underscore.tab" horiz-adv-x="1347" 
d="M72 -215h1202v-102h-1202v102z" />
    <glyph glyph-name="plus.tab" horiz-adv-x="1347" 
d="M616 1122h117v-383h402v-114h-402v-385h-117v385h-405v114h405v383z" />
    <glyph glyph-name="minus.tab" horiz-adv-x="1347" 
d="M223 741h899v-118h-899v118z" />
    <glyph glyph-name="divide.tab" horiz-adv-x="1347" 
d="M590 1104h168v-154h-168v154zM221 739h907v-114h-907v114zM590 416h168v-156h-168v156z" />
    <glyph glyph-name="equal.tab" horiz-adv-x="1347" 
d="M225 956h897v-116h-897v116zM225 524h897v-116h-897v116z" />
    <glyph glyph-name="multiply.tab" horiz-adv-x="1347" 
d="M1001 272l-327 328l-330 -328l-84 80l332 330l-330 328l84 82l328 -328l327 328l84 -80l-329 -330l329 -328z" />
    <glyph glyph-name="less.tab" horiz-adv-x="1347" 
d="M1030 1145v-129l-688 -334l688 -334v-131l-823 406v118z" />
    <glyph glyph-name="greater.tab" horiz-adv-x="1347" 
d="M299 1145l825 -404v-118l-825 -406v131l688 334l-688 334v129z" />
    <glyph glyph-name="plusminus.tab" horiz-adv-x="1347" 
d="M616 1276h115v-375h389v-110h-389v-379h-115v379h-393v110h393v375zM223 229h899v-116h-899v116z" />
    <glyph glyph-name="onehalf.tab" horiz-adv-x="2019" 
d="M766 555h-647v90h280v524h-295v86h115q117 0 161 25t52 96h80v-731h254v-90zM1593 1364l-997 -1364h-111l1000 1364h108zM1915 0h-637v45q0 75 13 125.5t49.5 93t91 75.5t147.5 73q141 58 186 93.5t45 92.5q0 67 -56 101t-142 34q-97 0 -158 -43.5t-61 -120.5v-24h-107
v28q0 114 88.5 184t241.5 70q148 0 227.5 -62.5t79.5 -162.5q0 -41 -13.5 -73.5t-33 -55.5t-63.5 -49.5t-81 -44t-110 -49.5q-136 -57 -180.5 -101.5t-44.5 -132.5h518v-96z" />
    <glyph glyph-name="onethird.tab" horiz-adv-x="2019" 
d="M766 555h-647v90h280v524h-295v86h115q117 0 161 25t52 96h80v-731h254v-90zM1593 1364l-997 -1364h-111l1000 1364h108zM1606 827q147 0 230 -66t83 -159v-4q0 -63 -47.5 -115.5t-138.5 -70.5q95 -19 142.5 -71.5t47.5 -123.5v-2q0 -97 -84 -164t-235 -67
q-174 0 -253 68.5t-79 168.5v23h104v-17q0 -67 54.5 -110t166.5 -43q95 0 154 40t59 105v2q0 65 -55.5 104.5t-173.5 39.5h-102v86h102q116 0 171.5 41t55.5 100v6q0 61 -58 99t-151 38q-108 0 -164.5 -44t-56.5 -107v-17h-104v23q0 42 18 82t55 76t104 57.5t155 21.5z" />
    <glyph glyph-name="twothirds.tab" horiz-adv-x="2019" 
d="M731 555h-637v45q0 75 13 125.5t49.5 93t91 75.5t147.5 73q142 59 187 94t45 92q0 67 -57 102t-142 35q-96 0 -157.5 -44t-61.5 -122v-24h-107v28q0 114 89 184t241 70q148 0 227.5 -62.5t79.5 -162.5q0 -41 -13.5 -73.5t-33 -55.5t-63.5 -49.5t-81 -44t-110 -49.5
q-136 -57 -180.5 -101.5t-44.5 -132.5h518v-96zM1575 1364l-997 -1364h-111l997 1364h111zM1606 827q147 0 230 -66t83 -159v-4q0 -63 -47.5 -115.5t-138.5 -70.5q95 -19 142.5 -71.5t47.5 -123.5v-2q0 -97 -84 -164t-235 -67q-174 0 -253 68.5t-79 168.5v23h104v-17
q0 -67 54.5 -110t166.5 -43q95 0 154 40t59 105v2q0 65 -55.5 104.5t-173.5 39.5h-102v86h102q116 0 171.5 41t55.5 100v6q0 61 -58 99t-151 38q-108 0 -164.5 -44t-56.5 -107v-17h-104v23q0 42 18 82t55 76t104 57.5t155 21.5z" />
    <glyph glyph-name="onequarter.tab" horiz-adv-x="2019" 
d="M766 555h-647v90h280v524h-295v86h115q117 0 161 25t52 96h80v-731h254v-90zM1665 1364l-997 -1364h-111l999 1364h109zM1692 809h137v-530h135v-91h-135v-188h-107v188h-505v95zM1722 279v438l-395 -438h395z" />
    <glyph glyph-name="threequarters.tab" horiz-adv-x="2019" 
d="M422 1382q147 0 230 -66t83 -159v-4q0 -63 -47.5 -115.5t-138.5 -70.5q95 -18 142.5 -70.5t47.5 -122.5v-4q0 -97 -84 -164t-235 -67q-174 0 -253 68.5t-79 168.5v23h105v-17q0 -67 54.5 -110t166.5 -43q95 0 154 40t59 105v2q0 65 -56 104.5t-174 39.5h-102v86h102
q116 0 172 41t56 100v6q0 61 -58 99t-151 38q-108 0 -164.5 -44t-56.5 -107v-17h-105v23q0 42 18 82t55 76t104 57.5t155 21.5zM1620 1364l-999 -1364h-109l997 1364h111zM1692 809h137v-530h135v-91h-135v-188h-107v188h-505v95zM1722 279v438l-395 -438h395z" />
    <glyph glyph-name="onefifth.tab" horiz-adv-x="2019" 
d="M766 555h-647v90h280v524h-295v86h115q117 0 161 25t52 96h80v-731h254v-90zM1593 1364l-997 -1364h-111l998 1364h110zM1329 809h578q-5 -60 -25.5 -79t-83.5 -19h-373l-22 -281q111 82 248 82q133 0 203.5 -68.5t70.5 -179.5v-6q0 -116 -83 -195t-236 -79
q-164 0 -242 68t-78 171v8h107v-4q0 -68 55 -109.5t158 -41.5q95 0 152 49t57 133v2q0 74 -48.5 122t-144.5 48q-138 0 -233 -88l-91 25z" />
    <glyph glyph-name="twofifths.tab" horiz-adv-x="2019" 
d="M731 555h-637v45q0 75 13 125.5t49.5 93t91 75.5t147.5 73q142 59 187 94t45 92q0 67 -57 102t-142 35q-96 0 -157.5 -44t-61.5 -122v-24h-107v28q0 114 89 184t241 70q148 0 227.5 -62.5t79.5 -162.5q0 -41 -13.5 -73.5t-33 -55.5t-63.5 -49.5t-81 -44t-110 -49.5
q-136 -57 -180.5 -101.5t-44.5 -132.5h518v-96zM1573 1364l-998 -1364h-108l997 1364h109zM1329 809h578q-5 -60 -25.5 -79t-83.5 -19h-373l-22 -281q111 82 248 82q133 0 203.5 -68.5t70.5 -179.5v-6q0 -116 -83 -195t-236 -79q-164 0 -242 68t-78 171v8h107v-4
q0 -68 55 -109.5t158 -41.5q95 0 152 49t57 133v2q0 74 -48.5 122t-144.5 48q-138 0 -233 -88l-91 25z" />
    <glyph glyph-name="threefifths.tab" horiz-adv-x="2019" 
d="M422 1382q147 0 230 -66t83 -159v-4q0 -63 -47.5 -115.5t-138.5 -70.5q95 -18 142.5 -70.5t47.5 -122.5v-4q0 -97 -84 -164t-235 -67q-174 0 -253 68.5t-79 168.5v23h105v-17q0 -67 54.5 -110t166.5 -43q95 0 154 40t59 105v2q0 65 -56 104.5t-174 39.5h-102v86h102
q116 0 172 41t56 100v6q0 61 -58 99t-151 38q-108 0 -164.5 -44t-56.5 -107v-17h-105v23q0 42 18 82t55 76t104 57.5t155 21.5zM1561 1364l-998 -1364h-110l999 1364h109zM1329 809h578q-5 -60 -25.5 -79t-83.5 -19h-373l-22 -281q111 82 248 82q133 0 203.5 -68.5
t70.5 -179.5v-6q0 -116 -83 -195t-236 -79q-164 0 -242 68t-78 171v8h107v-4q0 -68 55 -109.5t158 -41.5q95 0 152 49t57 133v2q0 74 -48.5 122t-144.5 48q-138 0 -233 -88l-91 25z" />
    <glyph glyph-name="fourfifths.tab" horiz-adv-x="2019" 
d="M508 1366h137v-532h135v-91h-135v-188h-106v188h-504v95zM1563 1364l-998 -1364h-110l999 1364h109zM539 834v438l-396 -438h396zM1329 809h578q-5 -60 -25.5 -79t-83.5 -19h-373l-22 -281q111 82 248 82q133 0 203.5 -68.5t70.5 -179.5v-6q0 -116 -83 -195t-236 -79
q-164 0 -242 68t-78 171v8h107v-4q0 -68 55 -109.5t158 -41.5q95 0 152 49t57 133v2q0 74 -48.5 122t-144.5 48q-138 0 -233 -88l-91 25z" />
    <glyph glyph-name="onesixth.tab" horiz-adv-x="2019" 
d="M766 555h-647v90h280v524h-295v86h115q117 0 161 25t52 96h80v-731h254v-90zM1608 1364l-1000 -1364h-108l997 1364h111zM1602 -18q-160 0 -247 83t-87 250v140q0 170 89.5 270t268.5 100q84 0 145.5 -22.5t92.5 -58.5t45 -72t14 -72v-6h-108q0 50 -45 92.5t-140 42.5
q-135 0 -193.5 -69t-58.5 -205v-60q80 107 262 107q143 0 220 -71.5t77 -172.5v-6q0 -52 -20.5 -99.5t-60.5 -86t-105.5 -61.5t-148.5 -23zM1602 76q103 0 162 49.5t59 120.5v8q0 67 -54.5 114.5t-160.5 47.5q-102 0 -165 -44.5t-63 -115.5q0 -84 61 -132t161 -48z" />
    <glyph glyph-name="fivesixths.tab" horiz-adv-x="2019" 
d="M147 1366h576q-5 -61 -25 -80.5t-84 -19.5h-372l-23 -281q111 82 248 82q133 0 203.5 -68t70.5 -180v-6q0 -116 -83 -195t-236 -79q-164 0 -242 68t-78 171v8h107v-4q0 -68 55 -109.5t158 -41.5q94 0 151.5 49.5t57.5 132.5v2q0 74 -48.5 122t-144.5 48q-138 0 -233 -88
l-90 25zM1575 1364l-997 -1364h-109l997 1364h109zM1602 -18q-160 0 -247 83t-87 250v140q0 170 89.5 270t268.5 100q84 0 145.5 -22.5t92.5 -58.5t45 -72t14 -72v-6h-108q0 50 -45 92.5t-140 42.5q-135 0 -193.5 -69t-58.5 -205v-60q80 107 262 107q143 0 220 -71.5
t77 -172.5v-6q0 -52 -20.5 -99.5t-60.5 -86t-105.5 -61.5t-148.5 -23zM1602 76q103 0 162 49.5t59 120.5v8q0 67 -54.5 114.5t-160.5 47.5q-102 0 -165 -44.5t-63 -115.5q0 -84 61 -132t161 -48z" />
    <glyph glyph-name="oneeighth.tab" horiz-adv-x="2019" 
d="M766 555h-647v90h280v524h-295v86h115q117 0 161 25t52 96h80v-731h254v-90zM1595 1364l-997 -1364h-111l1000 1364h108zM1599 831q157 0 244.5 -66.5t87.5 -170.5v-2q0 -128 -155 -184q82 -26 125 -76.5t43 -116.5v-4q0 -106 -92.5 -168.5t-252.5 -62.5
q-159 0 -250.5 62.5t-91.5 168.5v4q0 66 43.5 116.5t126.5 76.5q-157 56 -157 184v2q0 104 86.5 170.5t242.5 66.5zM1599 737q-99 0 -158 -40.5t-59 -106.5v-6q0 -60 60.5 -97.5t156.5 -37.5q97 0 158.5 37.5t61.5 97.5v6q0 66 -59.5 106.5t-160.5 40.5zM1599 74
q108 0 170 39.5t62 107.5v6q0 62 -63.5 101t-168.5 39q-103 0 -166 -39t-63 -101v-6q0 -68 61.5 -107.5t167.5 -39.5z" />
    <glyph glyph-name="threeeighths.tab" horiz-adv-x="2019" 
d="M422 1382q147 0 230 -66t83 -159v-4q0 -63 -47.5 -115.5t-138.5 -70.5q95 -18 142.5 -70.5t47.5 -122.5v-4q0 -97 -84 -164t-235 -67q-174 0 -253 68.5t-79 168.5v23h105v-17q0 -67 54.5 -110t166.5 -43q95 0 154 40t59 105v2q0 65 -56 104.5t-174 39.5h-102v86h102
q116 0 172 41t56 100v6q0 61 -58 99t-151 38q-108 0 -164.5 -44t-56.5 -107v-17h-105v23q0 42 18 82t55 76t104 57.5t155 21.5zM1563 1364l-998 -1364h-110l999 1364h109zM1599 831q157 0 244.5 -66.5t87.5 -170.5v-2q0 -128 -155 -184q82 -26 125 -76.5t43 -116.5v-4
q0 -106 -92.5 -168.5t-252.5 -62.5q-159 0 -250.5 62.5t-91.5 168.5v4q0 66 43.5 116.5t126.5 76.5q-157 56 -157 184v2q0 104 86.5 170.5t242.5 66.5zM1599 737q-99 0 -158 -40.5t-59 -106.5v-6q0 -60 60.5 -97.5t156.5 -37.5q97 0 158.5 37.5t61.5 97.5v6
q0 66 -59.5 106.5t-160.5 40.5zM1599 74q108 0 170 39.5t62 107.5v6q0 62 -63.5 101t-168.5 39q-103 0 -166 -39t-63 -101v-6q0 -68 61.5 -107.5t167.5 -39.5z" />
    <glyph glyph-name="fiveeighths.tab" horiz-adv-x="2019" 
d="M147 1366h576q-5 -61 -25 -80.5t-84 -19.5h-372l-23 -281q111 82 248 82q133 0 203.5 -68t70.5 -180v-6q0 -116 -83 -195t-236 -79q-164 0 -242 68t-78 171v8h107v-4q0 -68 55 -109.5t158 -41.5q94 0 151.5 49.5t57.5 132.5v2q0 74 -48.5 122t-144.5 48q-138 0 -233 -88
l-90 25zM1563 1364l-998 -1364h-110l999 1364h109zM1599 831q157 0 244.5 -66.5t87.5 -170.5v-2q0 -128 -155 -184q82 -26 125 -76.5t43 -116.5v-4q0 -106 -92.5 -168.5t-252.5 -62.5q-159 0 -250.5 62.5t-91.5 168.5v4q0 66 43.5 116.5t126.5 76.5q-157 56 -157 184v2
q0 104 86.5 170.5t242.5 66.5zM1599 737q-99 0 -158 -40.5t-59 -106.5v-6q0 -60 60.5 -97.5t156.5 -37.5q97 0 158.5 37.5t61.5 97.5v6q0 66 -59.5 106.5t-160.5 40.5zM1599 74q108 0 170 39.5t62 107.5v6q0 62 -63.5 101t-168.5 39q-103 0 -166 -39t-63 -101v-6
q0 -68 61.5 -107.5t167.5 -39.5z" />
    <glyph glyph-name="seveneighths.tab" horiz-adv-x="2019" 
d="M76 1366h692v-74q-171 -173 -262.5 -353.5t-118.5 -383.5h-123q21 186 111.5 360t263.5 349h-563v102zM1460 1364l-999 -1364h-109l998 1364h110zM1599 831q157 0 244.5 -66.5t87.5 -170.5v-2q0 -128 -155 -184q82 -26 125 -76.5t43 -116.5v-4q0 -106 -92.5 -168.5
t-252.5 -62.5q-159 0 -250.5 62.5t-91.5 168.5v4q0 66 43.5 116.5t126.5 76.5q-157 56 -157 184v2q0 104 86.5 170.5t242.5 66.5zM1599 737q-99 0 -158 -40.5t-59 -106.5v-6q0 -60 60.5 -97.5t156.5 -37.5q97 0 158.5 37.5t61.5 97.5v6q0 66 -59.5 106.5t-160.5 40.5z
M1599 74q108 0 170 39.5t62 107.5v6q0 62 -63.5 101t-168.5 39q-103 0 -166 -39t-63 -101v-6q0 -68 61.5 -107.5t167.5 -39.5z" />
    <glyph glyph-name="i.dot" horiz-adv-x="503" 
d="M172 1346h162v-162h-162v162zM184 963h135v-963h-135v963z" />
    <glyph glyph-name="fraction.tab" horiz-adv-x="348" 
d="M727 1364l-997 -1364h-111l999 1364h109z" />
    <glyph glyph-name="zero.num" 
d="M418 1386q168 0 261 -105.5t93 -287.5v-65q0 -182 -93 -287.5t-261 -105.5t-261.5 105.5t-93.5 287.5v65q0 182 93.5 287.5t261.5 105.5zM418 1288q-117 0 -179.5 -77.5t-62.5 -217.5v-67q0 -138 62.5 -215.5t179.5 -77.5t179 77.5t62 215.5v67q0 140 -62 217.5
t-179 77.5z" />
    <glyph glyph-name="one.num" horiz-adv-x="618" 
d="M330 1376h80v-821h-115v619h-209v81h53q95 0 137 25.5t54 95.5z" />
    <glyph glyph-name="one.num_alt" 
d="M766 555h-647v90h280v524h-295v86h115q117 0 161 25t52 96h80v-731h254v-90z" />
    <glyph glyph-name="two.num" 
d="M731 555h-637v45q0 75 13 125.5t49.5 93t91 75.5t147.5 73q142 59 187 94t45 92q0 67 -57 102t-142 35q-96 0 -157.5 -44t-61.5 -122v-24h-107v28q0 114 89 184t241 70q148 0 227.5 -62.5t79.5 -162.5q0 -41 -13.5 -73.5t-33 -55.5t-63.5 -49.5t-81 -44t-110 -49.5
q-136 -57 -180.5 -101.5t-44.5 -132.5h518v-96z" />
    <glyph glyph-name="three.num" 
d="M422 1382q147 0 230 -66t83 -159v-4q0 -63 -47.5 -115.5t-138.5 -70.5q95 -18 142.5 -70.5t47.5 -122.5v-4q0 -97 -84 -164t-235 -67q-174 0 -253 68.5t-79 168.5v23h105v-17q0 -67 54.5 -110t166.5 -43q95 0 154 40t59 105v2q0 65 -56 104.5t-174 39.5h-102v86h102
q116 0 172 41t56 100v6q0 61 -58 99t-151 38q-108 0 -164.5 -44t-56.5 -107v-17h-105v23q0 42 18 82t55 76t104 57.5t155 21.5z" />
    <glyph glyph-name="four.num" 
d="M508 1366h137v-532h135v-91h-135v-188h-106v188h-504v95zM539 834v438l-396 -438h396z" />
    <glyph glyph-name="five.num" 
d="M147 1366h576q-5 -61 -25 -80.5t-84 -19.5h-372l-23 -281q111 82 248 82q133 0 203.5 -68t70.5 -180v-6q0 -116 -83 -195t-236 -79q-164 0 -242 68t-78 171v8h107v-4q0 -68 55 -109.5t158 -41.5q94 0 151.5 49.5t57.5 132.5v2q0 74 -48.5 122t-144.5 48q-138 0 -233 -88
l-90 25z" />
    <glyph glyph-name="six.num" 
d="M418 537q-159 0 -246.5 83t-87.5 250v140q0 170 89.5 270t268.5 100q84 0 145.5 -22.5t92.5 -58.5t45 -72t14 -72v-6h-108q0 50 -45 93.5t-140 43.5q-134 0 -192.5 -69.5t-58.5 -206.5v-60q85 107 262 107q143 0 220 -71.5t77 -172.5v-6q0 -52 -21 -99.5t-61 -86
t-105.5 -61.5t-148.5 -23zM418 631q103 0 162 49.5t59 120.5v8q0 67 -54.5 115.5t-160.5 48.5q-101 0 -164 -45.5t-63 -116.5q0 -84 60.5 -132t160.5 -48z" />
    <glyph glyph-name="seven.num" 
d="M76 1366h692v-74q-171 -173 -262.5 -353.5t-118.5 -383.5h-123q21 186 111.5 360t263.5 349h-563v102z" />
    <glyph glyph-name="eight.num" 
d="M418 1386q156 0 244 -66.5t88 -170.5v-2q0 -62 -41 -109t-117 -73q82 -27 126 -78.5t44 -116.5v-4q0 -106 -92.5 -168.5t-251.5 -62.5q-160 0 -252 62.5t-92 168.5v4q0 66 43.5 117t126.5 78q-77 26 -117.5 73t-40.5 109v2q0 104 87.5 170.5t244.5 66.5zM418 1292
q-101 0 -160 -40.5t-59 -106.5v-6q0 -60 61 -97.5t158 -37.5q96 0 157.5 37.5t61.5 97.5v6q0 66 -60 106.5t-159 40.5zM418 629q106 0 168.5 40t62.5 107v6q0 62 -64 102t-167 40t-167.5 -40t-64.5 -102v-6q0 -68 62.5 -107.5t169.5 -39.5z" />
    <glyph glyph-name="nine.num" 
d="M418 1384q160 0 247 -84.5t87 -248.5v-142q0 -171 -89 -270.5t-272 -99.5q-83 0 -144.5 21.5t-93.5 56.5t-46.5 70t-14.5 71v8h109q0 -49 44.5 -90t143.5 -41q135 0 193.5 68.5t58.5 205.5v56q-87 -109 -264 -109q-140 0 -216.5 71t-76.5 169v14q0 112 87 193t247 81z
M418 1288q-103 0 -162 -49.5t-59 -122.5v-14q0 -63 55 -111.5t160 -48.5q95 0 161 45.5t66 114.5v2q0 85 -60.5 134.5t-160.5 49.5z" />
    <glyph glyph-name="zero.den" 
d="M418 831q168 0 261 -105.5t93 -287.5v-65q0 -182 -93 -287.5t-261 -105.5t-261.5 105.5t-93.5 287.5v65q0 182 93.5 287.5t261.5 105.5zM418 733q-117 0 -179.5 -77.5t-62.5 -217.5v-67q0 -138 62.5 -215.5t179.5 -77.5t179 77.5t62 215.5v67q0 140 -62 217.5t-179 77.5z
" />
    <glyph glyph-name="one.den" horiz-adv-x="618" 
d="M330 821h80v-821h-115v616h-209v84h53q95 0 137 25.5t54 95.5z" />
    <glyph glyph-name="one.den_alt" 
d="M766 0h-647v90h280v524h-295v86h115q117 0 161 25t52 96h80v-731h254v-90z" />
    <glyph glyph-name="two.den" 
d="M731 0h-637v45q0 75 13 125.5t49.5 93t91 75.5t147.5 73q142 59 187 94t45 92q0 67 -56.5 101t-142.5 34q-97 0 -158 -43.5t-61 -120.5v-24h-107v28q0 114 89 184t241 70q148 0 227.5 -62.5t79.5 -162.5q0 -41 -13.5 -73.5t-33 -55.5t-63.5 -49.5t-81 -44t-110 -49.5
q-136 -57 -180.5 -101.5t-44.5 -132.5h518v-96z" />
    <glyph glyph-name="three.den" 
d="M422 827q147 0 230 -66t83 -159v-4q0 -63 -47.5 -115.5t-138.5 -70.5q96 -19 143 -71.5t47 -123.5v-2q0 -97 -84 -164t-235 -67q-174 0 -253 68.5t-79 168.5v23h105v-17q0 -67 54.5 -110t166.5 -43q95 0 154 40t59 105v2q0 65 -56 104.5t-174 39.5h-102v86h102
q116 0 172 41t56 100v6q0 61 -58 99t-151 38q-107 0 -164 -44.5t-57 -106.5v-17h-105v23q0 42 18 82t55 76t104 57.5t155 21.5z" />
    <glyph glyph-name="four.den" 
d="M508 809h137v-530h135v-91h-135v-188h-106v188h-504v95zM539 279v438l-396 -438h396z" />
    <glyph glyph-name="five.den" 
d="M147 809h576q-5 -60 -25.5 -79t-83.5 -19h-372l-23 -281q111 82 248 82q133 0 203.5 -68.5t70.5 -179.5v-6q0 -116 -83 -195t-236 -79q-164 0 -242 68t-78 171v8h107v-4q0 -68 55 -109.5t158 -41.5q95 0 152 49t57 133v2q0 74 -48.5 122t-144.5 48q-138 0 -233 -88
l-90 25z" />
    <glyph glyph-name="six.den" 
d="M418 -18q-159 0 -246.5 83t-87.5 250v140q0 170 89.5 270t268.5 100q84 0 145.5 -22.5t92.5 -58.5t45 -72t14 -72v-6h-108q0 50 -45 92.5t-140 42.5q-135 0 -193 -69t-58 -205v-60q85 107 262 107q143 0 220 -71.5t77 -172.5v-6q0 -52 -21 -99.5t-61 -86t-105.5 -61.5
t-148.5 -23zM418 76q103 0 162 49.5t59 120.5v8q0 67 -54.5 114.5t-160.5 47.5q-101 0 -164 -44.5t-63 -115.5q0 -84 60.5 -132t160.5 -48z" />
    <glyph glyph-name="seven.den" 
d="M76 809h692v-72q-171 -173 -262.5 -353.5t-118.5 -383.5h-123q21 186 111.5 360t263.5 349h-563v100z" />
    <glyph glyph-name="eight.den" 
d="M418 831q156 0 244 -66.5t88 -170.5v-2q0 -61 -40.5 -108.5t-117.5 -75.5q82 -26 126 -77t44 -116v-4q0 -106 -92.5 -168.5t-251.5 -62.5q-160 0 -252 62.5t-92 168.5v4q0 66 43.5 116.5t126.5 76.5q-78 28 -118 75t-40 109v2q0 104 87.5 170.5t244.5 66.5zM418 737
q-101 0 -160 -40.5t-59 -106.5v-6q0 -60 61 -97.5t158 -37.5q96 0 157.5 37.5t61.5 97.5v6q0 66 -60 106.5t-159 40.5zM418 74q107 0 169 39.5t62 107.5v6q0 62 -63.5 101t-167.5 39t-168 -39t-64 -101v-6q0 -68 62.5 -107.5t169.5 -39.5z" />
    <glyph glyph-name="nine.den" 
d="M418 829q160 0 247 -84.5t87 -248.5v-142q0 -171 -89 -270.5t-272 -99.5q-83 0 -144.5 21.5t-93.5 56.5t-46.5 70t-14.5 71v8h109v-2q0 -49 44.5 -90t143.5 -41q135 0 193.5 69.5t58.5 206.5v56q-87 -109 -264 -109q-140 0 -216.5 71t-76.5 169v14q0 112 87 193t247 81z
M418 733q-103 0 -162 -49.5t-59 -122.5v-14q0 -64 54.5 -112t160.5 -48q96 0 161.5 44.5t65.5 115.5v2q0 85 -60.5 134.5t-160.5 49.5z" />
    <glyph glyph-name="caron.alt" horiz-adv-x="1024" 
d="M457 1487h129l-70 -371h-76z" />
    <glyph glyph-name="acute.cap" horiz-adv-x="1021" 
d="M723 1917l-324 -342h-100l250 342h174z" />
    <glyph glyph-name="hungarumlaut.cap" horiz-adv-x="1021" 
d="M532 1917l-301 -342h-84l226 342h159zM877 1917l-302 -342h-86l228 342h160z" />
    <glyph glyph-name="grave.cap" horiz-adv-x="1021" 
d="M299 1917h174l250 -342h-98z" />
    <glyph glyph-name="circumflex.cap" horiz-adv-x="1024" 
d="M438 1913h148q63 -214 268 -279v-73q-121 23 -208 88.5t-134 150.5q-47 -85 -134 -150.5t-208 -88.5v73q205 65 268 279z" />
    <glyph glyph-name="caron.cap" horiz-adv-x="1024" 
d="M170 1942q121 -25 208 -91t134 -151q47 85 134 151t208 91v-76q-205 -65 -268 -277h-148q-63 212 -268 277v76z" />
    <glyph glyph-name="breve.cap" horiz-adv-x="1024" 
d="M512 1669q225 0 225 137q0 42 -14 111h72q28 -79 28 -141q0 -103 -86.5 -158t-224.5 -55t-224.5 55t-86.5 158q0 62 28 141h72q-14 -69 -14 -111q0 -137 225 -137z" />
    <glyph glyph-name="tilde.cap" horiz-adv-x="1024" 
d="M330 1886q67 0 114.5 -31.5t96.5 -87.5q60 -65 86 -83q35 -23 71 -23q82 0 82 104q0 46 -20 111h82q22 -68 22 -127q0 -87 -46 -137.5t-124 -50.5q-46 0 -87.5 19t-66 40t-57.5 57q-3 3 -14.5 16t-15 17t-13.5 14.5t-14.5 14.5t-14.5 12.5t-16 12t-15 9t-17 7.5t-17.5 4
t-19.5 2q-82 0 -82 -105q0 -45 20 -110h-82q-22 68 -22 127q0 87 46 137.5t124 50.5z" />
    <glyph glyph-name="macron.cap" horiz-adv-x="1024" 
d="M184 1729h656v-103h-656v103z" />
    <glyph glyph-name="dieresis.cap" horiz-adv-x="1024" 
d="M246 1761h151v-166h-151v166zM627 1761h151v-166h-151v166z" />
    <glyph glyph-name="dotaccent.cap" horiz-adv-x="1024" 
d="M430 1757h164v-162h-164v162z" />
    <glyph glyph-name="ring.cap" horiz-adv-x="1024" 
d="M512 1970q105 0 169 -61t64 -148q0 -89 -63.5 -150t-169.5 -61q-104 0 -168.5 61t-64.5 150q0 86 64.5 147.5t168.5 61.5zM512 1892q-67 0 -108.5 -37.5t-41.5 -93.5q0 -58 41 -96.5t109 -38.5t109 38.5t41 96.5q0 56 -41.5 93.5t-108.5 37.5z" />
    <glyph glyph-name="commaaccent.rot" horiz-adv-x="1024" 
d="M385 1184v157q0 223 252 281v-51q-177 -51 -174 -207h98v-180h-176z" />
    </font>
</defs>
</svg>
